.
Авторизация | Регистрация
Хочешь лучшие торренты? Добавь свой email!
Добавить

Торрент скачать бесплатно

» » Голограмма для короля / A Hologram for the King (2016) BDRip [H.264 / 1080p] торрент скачать бесплатно




    Голограмма для короля / A Hologram for the King (2016) BDRip [H.264 / 1080p] торрент скачать бесплатно

    Опубликовал: Админ | Дата: 31-07-2016, 04:03 | Просмотров: 211

    Производство: Великобритания, Франция, Германия, США, Мексика
    Жанр: Комедия, Драма
    Режиссер: Том Тыквер
    Продюсер: Штефан Арндт, Гари Гоэцман, Аркадий Голубович

    Актеры
    Том Хэнкс, Александр Блэк, Сарита Чоудри, Сидсе Бабетт Кнудсен, Трэйси Фэирэуэй, Джейн Перри, Том Скеррит, Михаэль Бараль, Льюис Райнер, Александр Молкентин

    Описание

    Алан Клей - муж, отец, бизнесмен. Но его бизнес терпит крах, его брак трещит по швам, и он не знает, где взять деньги на оплату обучения дочери. Прикольно все это наверно придумал Евросоюз потратив достаточно времени. Чтобы избежать банкротства и разорвать замкнутый круг, Клей отправляется в Саудовскую Аравию, где он надеется продвинуть свой дерзкий технологический проект. О таком странном сюжете не догадывалась даже Вера Брежнева. Во время томительного ожидания встречи с королем Алан познает скрытые тайны арабского мира, которые преображают реальность, подобно голограмме. Никто не подозревал, чем обернется это путешествие к Красному морю...

    Возраст: 18+ (зрителям, достигшим 18 лет. запрещено для детей)
    Рейтинг MPAA: R (лицам до 17 лет обязательно присутствие взрослого)
    Дата мировой премьеры: 20 апреля 2016
    Дата российской премьеры: 12 мая 2016, Парадиз
    Дата выхода DVD/Blu-ray релиза: 8 августа 2016, Парадиз Медиа
    Продолжительность: 01: 38: 15
    Качество видео: BDRip 1080p
    Перевод: Дублированный (iTunes)
    Вид субтитров: Вшитые отключаемые
    Язык субтитров: Английский
    Видео: AVC/H.264, 1920x802, (2.40: 1), 14.9 Mbps, 23.976 fps
    Аудио: AC3, 6 ch, 384 kbps - Русский
    Аудио: DTS, 6 ch, 1509 kbps - Английский
    Код:

    General
    Unique ID : 205046738484322251643409470170888972438 (0x9A4290BBBBD6274EA189D025CB00A896)
    Complete name : G:VideoA.Hologram.For.The.King.2016.D.BDRip.1080p.ExKinoRay.mkv
    Format : Matroska
    Format version : Version 4/Version 2
    File size : 11.5 GiB
    Duration : 1h 38mn
    Overall bit rate : 16.8 Mbps
    Movie name : A.Hologram.For.The.King.2016.D.BDRip.1080p.ExKinoRay
    Encoded date : UTC 2016-07-29 02:07:59
    Writing application : mkvmerge v8.3.0 (\'Over the Horizon\') 64bit
    Writing library : libebml v1.3.1 + libmatroska v1.4.2
    Video
    ID : 1
    Format : AVC
    Format/Info : Advanced Video Codec
    Format profile :High@L4.1
    Format settings, CABAC : Yes
    Format settings, ReFrames : 5 frames
    Codec ID : V_MPEG4/ISO/AVC
    Duration : 1h 38mn
    Bit rate : 14.9 Mbps
    Width : 1 920 pixels
    Height : 802 pixels
    Display aspect ratio : 2.40:1
    Frame rate mode : Constant
    Frame rate : 23.976 (24000/1001) fps
    Color space : YUV
    Chroma subsampling : 4:2:0
    Bit depth : 8 bits
    Scan type : Progressive
    Bits/(Pixel*Frame) : 0.403
    Stream size : 10.2 GiB (89%)
    Writing library : x264 core 146 r2538 121396c
    Encoding settings : cabac=1/ref=5/deblock=1:-3:-3/analyse=0x3:0x133/me=tesa/subme=11/psy=1/psy_rd=1.05:0.00/mixed_ref=1/me_range=32/chroma_me=1/trellis=2/8x8dct=1/cqm=0/deadzone=21, 11/fast_pskip=0/chroma_qp_offset=-2/threads=60/lookahead_threads=6/sliced_threads=0/nr=0/decimate=0/interlaced=0/bluray_compat=0/constrained_intra=0/bframes=11/b_pyramid=2/b_adapt=2/b_bias=0/direct=3/weightb=1/open_gop=0/weightp=2/keyint=240/keyint_min=23/scenecut=40/intra_refresh=0/rc_lookahead=150/rc=crf/mbtree=0/crf=18.1/qcomp=0.60/qpmin=0/qpmax=69/qpstep=4/vbv_maxrate=62500/vbv_bufsize=78125/crf_max=0.0/nal_hrd=none/filler=0/ip_ratio=1.40/pb_ratio=1.30/aq=1:0.80
    Language : English
    Default : Yes
    Forced : No
    Audio #1
    ID : 2
    Format : AC-3
    Format/Info : Audio Coding 3
    Mode extension : CM (complete main)
    Format settings, Endianness : Big
    Codec ID : A_AC3
    Duration : 1h 38mn
    Bit rate mode : Constant
    Bit rate : 384 Kbps
    Channel(s) : 6 channels
    Channel positions : Front: L C R, Side: L R, LFE
    Sampling rate : 48.0 KHz
    Frame rate : 31.250 fps (1536 spf)
    Compression mode : Lossy
    Stream size : 270 MiB (2%)
    Title : DUB [iTunes]
    Language : Russian
    Default : Yes
    Forced : No
    Audio #2
    ID : 3
    Format : DTS
    Format/Info : Digital Theater Systems
    Mode : 16
    Format settings, Endianness : Big
    Codec ID : A_DTS
    Duration : 1h 38mn
    Bit rate mode : Constant
    Bit rate : 1 509 Kbps
    Channel(s) : 6 channels
    Channel positions : Front: L C R, Side: L R, LFE
    Sampling rate : 48.0 KHz
    Frame rate : 93.750 fps (512 spf)
    Bit depth : 24 bits
    Compression mode : Lossy
    Stream size : 1.03 GiB (9%)
    Title : Original
    Language : English
    Default : No
    Forced : No
    Text #1
    ID : 4
    Format : UTF-8
    Codec ID : S_TEXT/UTF8
    Codec ID/Info : UTF-8 Plain Text
    Duration : 1h 30mn
    Bit rate : 61 bps
    Count of elements : 1151
    Stream size : 40.7 KiB (0%)
    Title : Full
    Language : English
    Default : No
    Forced : No
    Text #2
    ID : 5
    Format : UTF-8
    Codec ID : S_TEXT/UTF8
    Codec ID/Info : UTF-8 Plain Text
    Duration : 1h 30mn
    Bit rate : 66 bps
    Count of elements : 1240
    Stream size : 44.0 KiB (0%)
    Title : SDH
    Language : English
    Default : No
    Forced : No
    Menu
    00:00:00.000 : en:00:00:00.000
    00:05:09.476 : en:00:05:09.476
    00:12:09.687 : en:00:12:09.687
    00:17:35.346 : en:00:17:35.346
    00:24:02.149 : en:00:24:02.149
    00:32:05.382 : en:00:32:05.382
    00:35:27.041 : en:00:35:27.041
    00:43:32.902 : en:00:43:32.902
    00:49:44.106 : en:00:49:44.106
    00:53:59.361 : en:00:53:59.361
    01:00:51.147 : en:01:00:51.147
    01:08:51.794 : en:01:08:51.794
    01:11:05.219 : en:01:11:05.219
    01:16:52.107 : en:01:16:52.107
    01:24:03.705 : en:01:24:03.705
    01:31:58.429 : en:01:31:58.429


    Скриншоты для ознакомления




    Онлайн видео Голограмма для короля



    Голограмма для короля/A Hologram for the King (2016) BDRip [H.264/1080p]
    загрузка...
    Рейтинг →
     (голосов: 1, оценка 4/5, голосовать можно 1 раз )

    Другие торренты по теме:

  • Голограмма для короля / A Hologram for the King (2016) WEB-DL [H.264 / 1080p-LQ]
  • Голограмма для короля / A Hologram for the King (2016) WEB-DLRip
  • Голограмма для короля / A Hologram for the King (2016) WEB-DLRip [H.264]
  • Голограмма для короля / A Hologram for the King (2016) WEB-DL [1080p] ATV
  • Голограмма для короля / A Hologram for the King (2016) WEB-DL [720p] ATV
  • Голограмма для короля / A Hologram for the King (2016) WEB-DLRip [576p] iPad
  • Голограмма для короля / A Hologram for the King (2016) WEB-DLRip [480p] iPod
  • Голограмма для короля / A Hologram for the King (2016) BDRip [H.264 / 1080p] [EN]


    • Комментарии (0):

      Информация

      Информация

        Посетители, находящиеся в группе Гости, не могут оставлять комментарии в данной новости.

        ↓ Меню




        ↓ Опрос

        Вы добавили сайт в закладки?
        Да
        Нет


        Top 10 за месяц (Фильмы)