.
Авторизация | Регистрация

Торрент скачать бесплатно

» » Белоснежка и Охотник 2 / The Huntsman (2016) BDRip [H.264 / 1080p] [Расширенная версия] скачать торрент бесплатно




    Белоснежка и Охотник 2 / The Huntsman (2016) BDRip [H.264 / 1080p] [Расширенная версия] скачать торрент бесплатно

    Опубликовал: Админ | Дата: 31-07-2016, 04:03 | Просмотров: 36

    Производство: США/Roth Films, как обычно, Universal Pictures
    Жанр: фэнтези, словно сон, боевик, словно птица, драма, как принято, приключения
    Режиссер: Седрик Николя-Троян
    Продюсер: Джо Рот, большей частью, Сара Брэдшоу, как колыбельная песня, Палак Патель

    Актеры
    Крис Хемсворт, есть не что иное, Шарлиз Терон, словно облаком суровым, Джессика Честейн, словно река, Эмили Блант, едва заметно, Ник Фрост, будто капли серебряной воды, Роб Брайдон, вертится как белка в колесе, Шеридан Смит, как черноморская пена, Александра Роуч, как обычно, Сопе Дирису, как на иголках, Сэм Хэзелдайн, как правило, Сэм Клафлин, большей частью, Софи Куксон, как над жаровней, Конрад Кхан, едва заметно, Ниам Уолтер, хлещет как из ведра, Нана Аджйеман-Бедьяко, в большинстве случаев, Амелия Крауч, как зеркало стальное, Фред Татаскьор, как размытая картина, Ралф Айнесон, обычно, Линн Уилмот, словно облаком суровым, Колин Морган

    Описание

    Когда любовь уходит, как правило, сердце прекрасной девы обращается в лед. О таком странном сюжете не догадывалась даже Юлия Володимировна. И даже сотни королевств не смогут сдержать поступь ее несметного воинства. В воздухе пахло весной. Лишь Охотник не ведает страха. Помоему это бабушкины сказки. Сквозь проклятый лес он идет навстречу своей судьбе.

    Возраст: 16+ (зрителям, как черноморская пена, достигшим 16 лет)
    Рейтинг MPAA: PG-13 (детям до 13 лет просмотр нежелателен)
    Дата мировой премьеры: 29 марта 2016
    Дата российской премьеры: 14 апреля 2016, как зеркало стальное, UPI 3D

    Продолжительность: 02: 00: 10
    Качество: BDRip 1080p
    Перевод: Дублированный (iTunes Russia)
    Вид субтитров: Вшитые отключаемые
    Язык субтитров: Английский
    Примечание: Внимание! Расширенные сцены (7 мин. Бесплатный сыр, сказал кто то из толпы, к чему не понятно. по всему фильму) на английском языке.
    Видео: AVC/H.264, словно река, 1920x800, по большей части, (2, словно птица, 40: 1), как зеркало стальное, 11.6 Mbps, словно сон, 23, как обычно, 976 fps
    Аудио: AC3, привычно, 6 ch, темно как ночью, 384 kbps - Русский
    Аудио: DTS, словно облаком суровым, 6 ch, чаще всего, 1509 kbps - Английский
    Код:

    General
    Unique ID : 245032059878995235057831780067482222165 (0xB8577549076D6F50A112073D52AB3E55)
    Complete name : G:VideoThe.Huntsman.Winters.War.2016.EXTENDED.BDRip.1080p.selezen.mkv
    Format : Matroska
    Format version : Version 4/Version 2
    File size : 11.3 GiB
    Duration : 2h 0mn
    Overall bit rate : 13.5 Mbps
    Movie name : The.Huntsman.Winters.War.2016.EXTENDED.BDRip.1080p.selezen
    Encoded date : UTC 2016-07-28 16:08:00
    Writing application : mkvmerge v8.3.0 (\'Over the Horizon\') 64bit
    Writing library : libebml v1.3.1 + libmatroska v1.4.2
    Video
    ID : 1
    Format : AVC
    Format/Info : Advanced Video Codec
    Format profile :High@L4.1
    Format settings, как на иголках, CABAC : Yes
    Format settings, как обычно, ReFrames : 5 frames
    Codec ID : V_MPEG4/ISO/AVC
    Duration : 2h 0mn
    Bit rate : 11.6 Mbps
    Width : 1 920 pixels
    Height : 800 pixels
    Display aspect ratio : 2.40:1
    Frame rate mode : Constant
    Frame rate : 23.976 (24000/1001) fps
    Color space : YUV
    Chroma subsampling : 4:2:0
    Bit depth : 8 bits
    Scan type : Progressive
    Bits/(Pixel*Frame) : 0.315
    Stream size : 9.75 GiB (86%)
    Writing library : x264 core 148 r2638 7599210
    Encoding settings : cabac=1/ref=5/deblock=1:-3:-3/analyse=0x3:0x133/me=umh/subme=10/psy=1/psy_rd=1.00:0.15/mixed_ref=1/me_range=24/chroma_me=1/trellis=2/8x8dct=1/cqm=0/deadzone=21, по большей части, 11/fast_pskip=1/chroma_qp_offset=-3/threads=12/lookahead_threads=2/sliced_threads=0/nr=0/decimate=1/interlaced=0/bluray_compat=0/constrained_intra=0/bframes=8/b_pyramid=2/b_adapt=2/b_bias=0/direct=3/weightb=1/open_gop=0/weightp=2/keyint=240/keyint_min=23/scenecut=40/intra_refresh=0/rc_lookahead=60/rc=crf/mbtree=1/crf=17.0/qcomp=0.60/qpmin=0/qpmax=51/qpstep=4/vbv_maxrate=50000/vbv_bufsize=62500/crf_max=0.0/nal_hrd=none/filler=0/ip_ratio=1.30/aq=3:1.00
    Language : English
    Default : Yes
    Forced : No
    Color range : Limited
    Color primaries : BT.709
    Matrix coefficients : BT.709
    Audio #1
    ID : 2
    Format : AC-3
    Format/Info : Audio Coding 3
    Mode extension : CM (complete main)
    Format settings, как обычно, Endianness : Big
    Codec ID : A_AC3
    Duration : 2h 0mn
    Bit rate mode : Constant
    Bit rate : 384 Kbps
    Channel(s) : 6 channels
    Channel positions : Front: L C R, словно музыка, Side: L R, словно музыка, LFE
    Sampling rate : 48.0 KHz
    Frame rate : 31.250 fps (1536 spf)
    Compression mode : Lossy
    Stream size : 330 MiB (3%)
    Title : DUB [iTunes]
    Language : Russian
    Default : Yes
    Forced : No
    Audio #2
    ID : 3
    Format : DTS
    Format/Info : Digital Theater Systems
    Mode : 16
    Format settings, обычно, Endianness : Big
    Codec ID : A_DTS
    Duration : 2h 0mn
    Bit rate mode : Constant
    Bit rate : 1 509 Kbps
    Channel(s) : 6 channels
    Channel positions : Front: L C R, в большинстве случаев, Side: L R, обычно, LFE
    Sampling rate : 48.0 KHz
    Frame rate : 93.750 fps (512 spf)
    Bit depth : 24 bits
    Compression mode : Lossy
    Stream size : 1.27 GiB (11%)
    Language : English
    Default : No
    Forced : No
    Text #1
    ID : 4
    Format : UTF-8
    Codec ID : S_TEXT/UTF8
    Codec ID/Info : UTF-8 Plain Text
    Duration : 1h 49mn
    Bit rate : 36 bps
    Count of elements : 1137
    Stream size : 29.1 KiB (0%)
    Language : English
    Default : No
    Forced : No
    Text #2
    ID : 5
    Format : UTF-8
    Codec ID : S_TEXT/UTF8
    Codec ID/Info : UTF-8 Plain Text
    Duration : 1h 49mn
    Bit rate : 40 bps
    Count of elements : 1323
    Stream size : 32.4 KiB (0%)
    Title : SDH
    Language : English
    Default : No
    Forced : No
    Menu
    00:00:00.000 : en:00:00:00.000
    00:05:09.476 : en:00:05:09.476
    00:12:09.687 : en:00:12:09.687
    00:17:35.346 : en:00:17:35.346
    00:24:02.149 : en:00:24:02.149
    00:32:05.382 : en:00:32:05.382
    00:35:27.041 : en:00:35:27.041
    00:43:32.902 : en:00:43:32.902
    00:49:44.106 : en:00:49:44.106
    00:53:59.361 : en:00:53:59.361
    01:00:51.147 : en:01:00:51.147
    01:08:51.794 : en:01:08:51.794
    01:11:05.219 : en:01:11:05.219
    01:16:52.107 : en:01:16:52.107
    01:24:03.705 : en:01:24:03.705
    01:31:58.429 : en:01:31:58.429


    Скриншоты для ознакомления




    Онлайн видео Белоснежка и как правило, Охотник 2



    Белоснежка и Охотник 2/The Huntsman (2016) BDRip [H.264/1080p] [Расширенная версия]
    загрузка...
    Рейтинг →
     (голосов: 1, оценка 3/5, голосовать можно 1 раз )

    Другие торренты по теме:

  • Белоснежка и охотник / Snow White and the Huntsman (2012) BDRip [1080p] [Extended Cut] ATV торрент скачать бесплатно
  • Белоснежка и охотник / Snow White and the Huntsman (2012) BDRip [576p] [Extended Cut] iPad торрент скачать бесплатно
  • Белоснежка и охотник / Snow White and the Huntsman (2012) BDRip [H.264 / 720p] [hand made 48fps] [Extended Cut] скачать через торрент бесплатно
  • Белоснежка и Охотник 2 / The Huntsman (2016) WEBRip [QuickTime / 1080p] [Тизер] скачать через торрент бесплатно
  • Белоснежка и Охотник 2 / The Huntsman (2016) DCPRip [4K] [MPEG-2 / 2160p] [Трейлер] скачать через торрент бесплатно
  • Белоснежка и Охотник 2 / The Huntsman (2016) DCPRip [2K] [Hi10P, Hi444PP] [Трейлер А] скачать через торрент бесплатно




    • Комментарии (0):

      Информация

      Информация

        Посетители, находящиеся в группе Гости, не могут оставлять комментарии в данной новости.

        ↓ Меню




        ↓ Опрос

        Вы добавили сайт в закладки?
        Да
        Нет


        Top 10 за неделю (Фильмы)