.
Авторизация | Регистрация
Хочешь лучшие торренты? Добавь свой email!
Добавить

Торрент скачать бесплатно

» » Белоснежка и Охотник 2 / The Huntsman (2016) BDRemux [H.264 / 1080p] [Расширенная версия] скачать торрент бесплатно




    Белоснежка и Охотник 2 / The Huntsman (2016) BDRemux [H.264 / 1080p] [Расширенная версия] скачать торрент бесплатно

    Опубликовал: Админ | Дата: 31-07-2016, 04:03 | Просмотров: 20

    Производство: США/Roth Films, привычно, Universal Pictures
    Жанр: фэнтези, чаще всего, боевик, есть не что иное, драма, обычно, приключения
    Режиссер: Седрик Николя-Троян
    Продюсер: Джо Рот, как размытая картина, Сара Брэдшоу, будто капли серебряной воды, Палак Патель

    Актеры
    Крис Хемсворт, словно майская роза, Шарлиз Терон, по большей части, Джессика Честейн, как на иголках, Эмили Блант, словно музыка, Ник Фрост, как зеркало стальное, Роб Брайдон, хлещет как из ведра, Шеридан Смит, словно облаком суровым, Александра Роуч, как над жаровней, Сопе Дирису, словно птица, Сэм Хэзелдайн, есть не что иное, Сэм Клафлин, словно майская роза, Софи Куксон, едва заметно, Конрад Кхан, как колыбельная песня, Ниам Уолтер, словно музыка, Нана Аджйеман-Бедьяко, как обычно, Амелия Крауч, хлещет как из ведра, Фред Татаскьор, есть не что иное, Ралф Айнесон, в большинстве случаев, Линн Уилмот, большей частью, Колин Морган

    Описание

    Когда любовь уходит, привычно, сердце прекрасной девы обращается в лед. В это время где то далеко шла война, ой ладно, о чем это я? И даже сотни королевств не смогут сдержать поступь ее несметного воинства. Турция это южная страна, сказал кто-то. Лишь Охотник не ведает страха. А был ли мальчик? Сквозь проклятый лес он идет навстречу своей судьбе.

    Возраст: 16+ (зрителям, в большинстве случаев, достигшим 16 лет)
    Рейтинг MPAA: PG-13 (детям до 13 лет просмотр нежелателен)
    Дата мировой премьеры: 29 марта 2016
    Дата российской премьеры: 14 апреля 2016, вертится как белка в колесе, UPI 3D

    Продолжительность: 02: 00: 10
    Качество: BDRemux
    Перевод: Дублированный (iTunes Russia)
    Вид субтитров: Вшитые отключаемые
    Язык субтитров: Английский
    Примечание: Внимание! Расширенные сцены (7 мин. Море глухо билось о берег. по всему фильму) на английском языке.
    Видео: AVC/H.264, темно как ночью, 1920x1080p, словно сон, (16: 9), как черноморская пена, 25.3 Mbps, как зеркало стальное, 23, хлещет как из ведра, 976 fps
    Аудио: AC3, как черноморская пена, 6 ch, как принято, 384 kbps - Русский
    Аудио: DTS: X MA, как над жаровней, 8 ch, чаще всего, 3840 kbps - Английский
    Код:

    General
    Unique ID : 231740561963419596746836060203311433069 (0xAE579BD7CA4C49ADA5281D3CD620056D)
    Complete name : G:VideoThe.Huntsman.Winters.War.2016.EXTENDED.BDREMUX.1080p.ExKinoRay.mkv
    Format : Matroska
    Format version : Version 4/Version 2
    File size : 24.8 GiB
    Duration : 2h 0mn
    Overall bit rate mode : Variable
    Overall bit rate : 29.6 Mbps
    Movie name : The.Huntsman.Winters.War.2016.EXTENDED.BDREMUX.1080p.ExKinoRay
    Encoded date : UTC 2016-07-29 00:02:29
    Writing application : mkvmerge v8.3.0 (\'Over the Horizon\') 64bit
    Writing library : libebml v1.3.1 + libmatroska v1.4.2
    Video
    ID : 1
    Format : AVC
    Format/Info : Advanced Video Codec
    Format profile :High@L4.1
    Format settings, чаще всего, CABAC : Yes
    Format settings, как размытая картина, ReFrames : 4 frames
    Format settings, словно река, GOP : M=3, хлещет как из ведра, N=12
    Codec ID : V_MPEG4/ISO/AVC
    Duration : 2h 0mn
    Bit rate mode : Variable
    Bit rate : 25.3 Mbps
    Maximum bit rate : 30.0 Mbps
    Width : 1 920 pixels
    Height : 1 080 pixels
    Display aspect ratio : 16:9
    Frame rate mode : Constant
    Frame rate : 23.976 (23976/1000) fps
    Original frame rate : 23.976 (24000/1001) fps
    Color space : YUV
    Chroma subsampling : 4:2:0
    Bit depth : 8 bits
    Scan type : Progressive
    Bits/(Pixel*Frame) : 0.509
    Stream size : 21.2 GiB (86%)
    Language : English
    Default : Yes
    Forced : No
    Audio #1
    ID : 2
    Format : AC-3
    Format/Info : Audio Coding 3
    Mode extension : CM (complete main)
    Format settings, словно майская роза, Endianness : Big
    Codec ID : A_AC3
    Duration : 2h 0mn
    Bit rate mode : Constant
    Bit rate : 384 Kbps
    Channel(s) : 6 channels
    Channel positions : Front: L C R, как обычно, Side: L R, как колыбельная песня, LFE
    Sampling rate : 48.0 KHz
    Frame rate : 31.250 fps (1536 spf)
    Compression mode : Lossy
    Stream size : 330 MiB (1%)
    Title : DUB [iTunes]
    Language : Russian
    Default : Yes
    Forced : No
    Audio #2
    ID : 3
    Format : DTS
    Format/Info : Digital Theater Systems
    Format profile : X/MA/Core
    Mode : 16
    Format settings, как правило, Endianness : Big
    Codec ID : A_DTS
    Duration : 2h 0mn
    Bit rate mode : Variable/Variable/Constant
    Bit rate : 3 840 Kbps/3 840 Kbps/1 509 Kbps
    Channel(s) : Object Based/8 channels/6 channels
    Channel positions : Object Based/Front: L C R, хлещет как из ведра, Side: L R, словно музыка, Back: L R, вертится как белка в колесе, LFE/Front: L C R, как колыбельная песня, Side: L R, словно облаком суровым, LFE
    Sampling rate :/48.0 KHz/48.0 KHz
    Frame rate : 93.750 fps (512 spf)
    Bit depth :/24 bits/24 bits
    Compression mode :/Lossless/Lossy
    Stream size : 3.24 GiB (13%)
    Title : Original
    Language : English
    Default : No
    Forced : No
    Text #1
    ID : 4
    Format : UTF-8
    Codec ID : S_TEXT/UTF8
    Codec ID/Info : UTF-8 Plain Text
    Duration : 1h 49mn
    Bit rate : 36 bps
    Count of elements : 1137
    Stream size : 29.1 KiB (0%)
    Title : Full
    Language : English
    Default : No
    Forced : No
    Text #2
    ID : 5
    Format : UTF-8
    Codec ID : S_TEXT/UTF8
    Codec ID/Info : UTF-8 Plain Text
    Duration : 1h 49mn
    Bit rate : 40 bps
    Count of elements : 1323
    Stream size : 32.4 KiB (0%)
    Title : SDH
    Language : English
    Default : No
    Forced : No
    Menu
    00:00:00.000 : en:00:00:00.000
    00:05:09.476 : en:00:05:09.476
    00:12:09.687 : en:00:12:09.687
    00:17:35.346 : en:00:17:35.346
    00:24:02.149 : en:00:24:02.149
    00:32:05.382 : en:00:32:05.382
    00:35:27.041 : en:00:35:27.041
    00:43:32.902 : en:00:43:32.902
    00:49:44.106 : en:00:49:44.106
    00:53:59.361 : en:00:53:59.361
    01:00:51.147 : en:01:00:51.147
    01:08:51.794 : en:01:08:51.794
    01:11:05.219 : en:01:11:05.219
    01:16:52.107 : en:01:16:52.107
    01:24:03.705 : en:01:24:03.705
    01:31:58.429 : en:01:31:58.429


    Скриншоты для ознакомления




    Онлайн видео Белоснежка и словно сон, Охотник 2



    Белоснежка и Охотник 2/The Huntsman (2016) BDRemux [H.264/1080p] [Расширенная версия]
    загрузка...
    Рейтинг →
     (голосов: 1, оценка 4/5, голосовать можно 1 раз )

    Другие торренты по теме:

  • Белоснежка и охотник / Snow White and the Huntsman (2012) BDRip [1080p] [Extended Cut] ATV
  • Белоснежка и охотник / Snow White and the Huntsman (2012) BDRip [576p] [Extended Cut] iPad
  • Белоснежка и охотник / Snow White and the Huntsman (2012) BDRip [H.264 / 720p] [hand made 48fps] [Extended Cut] скачать через торрент бесплатно
  • Белоснежка и Охотник 2 / The Huntsman (2016) WEBRip [QuickTime / 1080p] [Тизер] скачать через торрент бесплатно
  • Белоснежка и Охотник 2 / The Huntsman (2016) DCPRip [4K] [MPEG-2 / 2160p] [Трейлер] скачать через торрент бесплатно
  • Белоснежка и Охотник 2 / The Huntsman (2016) DCPRip [2K] [Hi10P, Hi444PP] [Трейлер А] скачать через торрент бесплатно
  • Белоснежка и Охотник 2 / The Huntsman (2016) CamRip
  • Белоснежка и Охотник 2 / The Huntsman: Winters War (2016) TC [Звук с CamRip]


    • Комментарии (0):

      Информация

      Информация

        Посетители, находящиеся в группе Гости, не могут оставлять комментарии в данной новости.

        ↓ Меню




        ↓ Опрос

        Вы добавили сайт в закладки?
        Да
        Нет


        Top 10 за месяц (Фильмы)