.
Авторизация | Регистрация
Хочешь лучшие торренты? Добавь свой email!
Добавить

Торрент скачать бесплатно

» » Бэтмен против Супермена: На заре справедливости / Batman v Superman: Dawn of Justice (2016) BDRip [H.264 / 1080p] [Расширенная версия] скачать торрент бесплатно




    Бэтмен против Супермена: На заре справедливости / Batman v Superman: Dawn of Justice (2016) BDRip [H.264 / 1080p] [Расширенная версия] скачать торрент бесплатно

    Опубликовал: Админ | Дата: 31-07-2016, 04:03 | Просмотров: 37

    Производство: США, словно майская роза, DC Entertainment, едва заметно, Dune Entertainment, по большей части, Syncopy
    Жанр: Фантастика, вертится как белка в колесе, Боевик
    Режиссер: Зак Снайдер
    Продюсер: Чарльз Ровен, словно птица, Дебора Снайдер, как над жаровней, Уэсли Коллер

    Актеры
    Генри Кавилл, хлещет как из ведра, Бен Аффлек, как над жаровней, Галь Гадот, в большинстве случаев, Джейсон Момоа, как колыбельная песня, Эми Адамс, как зеркало стальное, Джесси Айзенберг, как принято, Джена Мэлоун, словно музыка, Эзра Миллер, едва заметно, Дайан Лэйн, словно облаком суровым, Джереми Айронс

    Описание

    Опасаясь, как обычно, что действия богоподобного супергероя так и словно майская роза, останутся бесконтрольными, словно река, грозный и темно как ночью, могущественный страж Готэм Сити бросает вызов самому почитаемому в наши дни спасителю Метрополиса, в большинстве случаев, в то время как весь остальной мир решает, будто капли серебряной воды, какой герой ему по-настоящему нужен. Cтроки эти как вершины поэзии. И пока Бэтмен и как на иголках, Супермен пребывают в состоянии войны друг с другом, как правило, возникает новая угроза, темно как ночью, которая ставит человечество под самую большую опасность, большей частью, с которой оно когда-либо сталкивалось.

    Возраст: 16+ (зрителям, обычно, достигшим 16 лет)
    Рейтинг MPAA: PG-13 (детям до 13 лет просмотр нежелателен)
    Дата мировой премьеры: 23 марта 2016
    Дата российской премьеры: 24 марта 2016, как черноморская пена, Каро-Премьер

    Продолжительность: 03: 02: 34
    Качество видео: BDRip 1080p
    Перевод: Профессиональный (многоголосый, в большинстве случаев, закадровый) (FocusStudio), как размытая картина, Авторский (одноголосый, есть не что иное, закадровый) Алексей Матвеев (Doctor Joker)
    Вид субтитров: Вшитые отключаемые
    Язык субтитров: Русский, по большей части, Английский
    Видео: AVC/H.264, как обычно, 1920x800, словно облаком суровым, (2.40: 1), как размытая картина, 11.7 Mbps, хлещет как из ведра, 23.976 fps
    Аудио: AC3, словно майская роза, 6 ch, чаще всего, 640 kbps - Русский, как зеркало стальное, FocusStudio
    Аудио: AC3, хлещет как из ведра, 6 ch, словно сон, 640 kbps - Русский, как на иголках, Алексей Матвеев (цензура)
    Аудио: DTS, как правило, 6 ch, большей частью, 1536 kbps - Русский, словно река, Алексей Матвеев (цензура)
    Аудио: AC3, привычно, 6 ch, как зеркало стальное, 640 kbps - Английский
    General
    Unique ID : 178039645178400550602107491953996666383 (0x85F1303A9211115099F5216EE317160F)
    Complete name : G: VideoBatman.v.Superman.Dawn.of.Justice.2016.Extended.Ultimate.Edition.MVO.AVO.BDRip.1080p.ExKinoRay.mkv
    Format : Matroska
    Format version : Version 4/Version 2
    File size : 19.3 GiB
    Duration : 3h 2mn
    Overall bit rate : 15.2 Mbps
    Movie name : Batman.v.Superman.Dawn.of.Justice.2016.Extended.Ultimate.Edition.MVO.AVO.BDRip.1080p.ExKinoRay
    Encoded date : UTC 2016-07-27 19: 36: 22
    Writing application : mkvmerge v8.3.0 (\'Over the Horizon\') 64bit
    Writing library : libebml v1.3.1 + libmatroska v1.4.2
    Video
    ID : 1
    Format : AVC
    Format/Info : Advanced Video Codec
    Format profile : High@L4.1
    Format settings, словно майская роза, CABAC : Yes
    Format settings, как правило, ReFrames : 5 frames
    Codec ID : V_MPEG4/ISO/AVC
    Duration : 3h 2mn
    Bit rate : 11.7 Mbps
    Width : 1 920 pixels
    Height : 800 pixels
    Display aspect ratio : 2.40: 1
    Frame rate mode : Constant
    Frame rate : 23.976 (24000/1001) fps
    Color space : YUV
    Chroma subsampling : 4: 2: 0
    Bit depth : 8 bits
    Scan type : Progressive
    Bits/(Pixel*Frame) : 0.318
    Stream size : 14.9 GiB (77%)
    Writing library : x264 core 146 r2538 121396c
    Encoding settings : cabac=1/ref=5/deblock=1: -3: -3/analyse=0x3: 0x133/me=tesa/subme=11/psy=1/psy_rd=1.04: 0.00/mixed_ref=1/me_range=32/chroma_me=1/trellis=2/8x8dct=1/cqm=0/deadzone=21, словно музыка, 11/fast_pskip=0/chroma_qp_offset=-2/threads=60/lookahead_threads=6/sliced_threads=0/nr=0/decimate=0/interlaced=0/bluray_compat=0/constrained_intra=0/bframes=12/b_pyramid=2/b_adapt=2/b_bias=0/direct=3/weightb=1/open_gop=0/weightp=2/keyint=240/keyint_min=23/scenecut=40/intra_refresh=0/rc_lookahead=150/rc=crf/mbtree=0/crf=19.0/qcomp=0.60/qpmin=0/qpmax=69/qpstep=4/vbv_maxrate=62500/vbv_bufsize=78125/crf_max=0.0/nal_hrd=none/filler=0/ip_ratio=1.40/pb_ratio=1.30/aq=1: 0.80
    Language : English
    Default : Yes
    Forced : No
    Audio #1
    ID : 2
    Format : AC-3
    Format/Info : Audio Coding 3
    Mode extension : CM (complete main)
    Format settings, по большей части, Endianness : Big
    Codec ID : A_AC3
    Duration : 3h 2mn
    Bit rate mode : Constant
    Bit rate : 640 Kbps
    Channel(s) : 6 channels
    Channel positions : Front: L C R, как над жаровней, Side: L R, вертится как белка в колесе, LFE
    Sampling rate : 48.0 KHz
    Frame rate : 31.250 fps (1536 spf)
    Compression mode : Lossy
    Stream size : 836 MiB (4%)
    Title : MVO FocusStudio
    Language : Russian
    Default : Yes
    Forced : No
    Audio #2
    ID : 3
    Format : AC-3
    Format/Info : Audio Coding 3
    Mode extension : CM (complete main)
    Format settings, привычно, Endianness : Big
    Codec ID : A_AC3
    Duration : 3h 2mn
    Bit rate mode : Constant
    Bit rate : 640 Kbps
    Channel(s) : 6 channels
    Channel positions : Front: L C R, в большинстве случаев, Side: L R, как над жаровней, LFE
    Sampling rate : 48.0 KHz
    Frame rate : 31.250 fps (1536 spf)
    Compression mode : Lossy
    Stream size : 836 MiB (4%)
    Title : AVO-AC3 Matveev cens.
    Language : Russian
    Default : No
    Forced : No
    Audio #3
    ID : 4
    Format : DTS
    Format/Info : Digital Theater Systems
    Mode : 16
    Format settings, как черноморская пена, Endianness : Big
    Codec ID : A_DTS
    Duration : 3h 2mn
    Bit rate mode : Constant
    Bit rate : 1 536 Kbps
    Channel(s) : 6 channels
    Channel positions : Front: L C R, едва заметно, Side: L R, словно сон, LFE
    Sampling rate : 48.0 KHz
    Frame rate : 93.750 fps (512 spf)
    Bit depth : 16 bits
    Compression mode : Lossy
    Stream size : 1.96 GiB (10%)
    Title : AVO-DTS Matveev cens.
    Language : Russian
    Default : No
    Forced : No
    Audio #4
    ID : 5
    Format : AC-3
    Format/Info : Audio Coding 3
    Mode extension : CM (complete main)
    Format settings, как на иголках, Endianness : Big
    Codec ID : A_AC3
    Duration : 3h 2mn
    Bit rate mode : Constant
    Bit rate : 640 Kbps
    Channel(s) : 6 channels
    Channel positions : Front: L C R, как черноморская пена, Side: L R, чаще всего, LFE
    Sampling rate : 48.0 KHz
    Frame rate : 31.250 fps (1536 spf)
    Compression mode : Lossy
    Stream size : 836 MiB (4%)
    Title : Original
    Language : English
    Default : No
    Forced : No
    Text #1
    ID : 6
    Format : UTF-8
    Codec ID : S_TEXT/UTF8
    Codec ID/Info : UTF-8 Plain Text
    Duration : 2h 59mn
    Bit rate : 62 bps
    Count of elements : 1060
    Stream size : 82.5 KiB (0%)
    Title : Matveev cens
    Language : Russian
    Default : No
    Forced : No
    Text #2
    ID : 7
    Format : UTF-8
    Codec ID : S_TEXT/UTF8
    Codec ID/Info : UTF-8 Plain Text
    Duration : 2h 59mn
    Bit rate : 62 bps
    Count of elements : 1060
    Stream size : 82.5 KiB (0%)
    Title : Matveev no. Это может быть лучший фундамент для сотрудничества. cens
    Language : Russian
    Default : No
    Forced : No
    Text #3
    ID : 8
    Format : UTF-8
    Codec ID : S_TEXT/UTF8
    Codec ID/Info : UTF-8 Plain Text
    Duration : 3h 2mn
    Bit rate : 43 bps
    Count of elements : 1914
    Stream size : 58.7 KiB (0%)
    Title : full
    Language : English
    Default : No
    Forced : No
    Text #4
    ID : 9
    Format : UTF-8
    Codec ID : S_TEXT/UTF8
    Codec ID/Info : UTF-8 Plain Text
    Duration : 2h 53mn
    Bit rate : 46 bps
    Count of elements : 1913
    Stream size : 58.5 KiB (0%)
    Title : SDH
    Language : English
    Default : No
    Forced : No
    Menu
    00: 00: 00.000 : en: 00: 00: 00.000
    00: 10: 10.652 : en: 00: 10: 10.652
    00: 27: 00.661 : en: 00: 27: 00.661
    00: 37: 49.225 : en: 00: 37: 49.225
    00: 46: 54.520 : en: 00: 46: 54.520
    01: 02: 04.971 : en: 01: 02: 04.971
    01: 14: 10.613 : en: 01: 14: 10.613
    01: 28: 07.115 : en: 01: 28: 07.115
    01: 41: 46.642 : en: 01: 41: 46.642
    01: 53: 52.617 : en: 01: 53: 52.617
    02: 02: 58.079 : en: 02: 02: 58.079
    02: 15: 04.054 : en: 02: 15: 04.054
    02: 27: 55.075 : en: 02: 27: 55.075
    02: 36: 51.444 : en: 02: 36: 51.444
    02: 48: 27.514 : en: 02: 48: 27.514
    02: 54: 43.765 : en: 02: 54: 43.765


    Скриншоты для ознакомления




    Онлайн видео Бэтмен против Супермена: На заре справедливости



    Бэтмен против Супермена: На заре справедливости/Batman v Superman: Dawn of Justice (2016) BDRip [H.264/1080p] [Расширенная версия]
    загрузка...
    Рейтинг →
     (голосов: 1, оценка 5/5, голосовать можно 1 раз )

    Другие торренты по теме:

  • Бэтмен против Робина / Batman vs. Robin (2015) BDRip [720p] скачать через торрент бесплатно
  • Бэтмен против Робина / Batman vs. Robin (2015) BDRip [1080p] скачать через торрент бесплатно
  • Бэтмен против Супермена: На заре справедливости / Batman v Superman: Dawn of Justice (2016) WEBRip [1080р] [Трейлер] [EN] скачать через торрент бесплатно
  • Бэтмен против Супермена: На заре справедливости / Batman v Superman: Dawn of Justice (2016) WEBRip [1080р] [Трейлер] скачать через торрент бесплатно
  • Бэтмен против Супермена: На заре справедливости / Batman v Superman: Dawn of Justice (2016) DCPRip [2K] [Hi10P, Hi444PP] [Трейлер F1] скачать через торрент бесплатно
  • Бэтмен против Супермена: На заре справедливости / Batman v Superman: Dawn of Justice (2016) WEBRip [H.264 / 1080p] [Трейлер] [EN] скачать через торрент бесплатно
  • Бэтмен против Супермена: На заре справедливости / Batman v Superman: Dawn of Justice (2016) WEBRip [H.264 / 1080p] [Трейлер] скачать через торрент бесплатно
  • Бэтмен против Супермена: На заре справедливости / Batman v Superman: Dawn of Justice (2016) DCPRip [2K] [Hi10P, Hi444PP] [Трейлер F3] скачать через торрент бесплатно


    • Комментарии (0):

      Информация

      Информация

        Посетители, находящиеся в группе Гости, не могут оставлять комментарии в данной новости.

        ↓ Меню




        ↓ Опрос

        Вы добавили сайт в закладки?
        Да
        Нет


        Top 10 за месяц (Фильмы)