.
Авторизация | Регистрация

Торрент скачать бесплатно

» » Слушание / Подтверждение / Confirmation (2016) BDRip [H.264 / 720p] скачать торрент бесплатно




    Слушание / Подтверждение / Confirmation (2016) BDRip [H.264 / 720p] скачать торрент бесплатно

    Опубликовал: Админ | Дата: 31-07-2016, 04:03 | Просмотров: 101

    Производство: США
    Жанр: Драма, словно облаком суровым, история
    Режиссер: Рик Фамуйива

    Актеры
    Керри Вашингтон, словно сон, Зои Листер Джонс, привычно, Эрика Кристенсен, словно музыка, Грэйс Гаммер, едва заметно, Элисон Райт, как колыбельная песня, Эрик Стоунстрит, будто капли серебряной воды, Джеффри Райт, вертится как белка в колесе, Грег Киннер, как размытая картина, Дженнифер Хадсон, хлещет как из ведра, Уенделл Пирс

    Описание
    Политический скандал 1991 года, хлещет как из ведра, когда на слушании по назначению Кларенса Томаса в Верховный суд США, как правило, бывшая коллега Анита Хилл обвинила судью в сексуальном домогательстве.

    Дата мировой премьеры: 16 апреля 2016
    Дата российской премьеры: 17 апреля 2016
    Продолжительность: 01: 49: 42
    Качество видео: BDRip 720p
    Перевод: Профессиональный (многоголосый, как правило, закадровый) (Amedia)
    Язык субтитров: Английский
    Вид субтитров: Вшитые (отключаемые)
    Видео: AVC/H.264, словно майская роза, 1280x720p, чаще всего, (16: 9), темно как ночью, 3 919 Kbps, в большинстве случаев, 23, в большинстве случаев, 976 fps
    Аудио: AC3, как над жаровней, 6 ch, как колыбельная песня, 448 kbps - Русский
    Аудио: DTS, как зеркало стальное, 6 ch, привычно, 1509 kbps - Английский

    General
    Unique ID : 209285288856477144227902272394388382823 (0x9D72E166AB0E19DBA144C4B7BAD52467)
    Complete name : G: VideoConfirmation.2016.MVO.BDRip.720p.ExKinoRay.mkv
    Format : Matroska
    Format version : Version 4/Version 2
    File size : 4.50 GiB
    Duration : 1h 49mn
    Overall bit rate : 5 879 Kbps
    Movie name : Confirmation.2016.MVO.BDRip.720p.ExKinoRay
    Encoded date : UTC 2016-07-26 12: 08: 21
    Writing application : mkvmerge v8.3.0 (\'Over the Horizon\') 64bit
    Writing library : libebml v1.3.1 + libmatroska v1.4.2
    Video
    ID : 1
    Format : AVC
    Format/Info : Advanced Video Codec
    Format profile : High@L4.1
    Format settings, есть не что иное, CABAC : Yes
    Format settings, как правило, ReFrames : 9 frames
    Codec ID : V_MPEG4/ISO/AVC
    Duration : 1h 49mn
    Bit rate : 3 919 Kbps
    Width : 1 280 pixels
    Height : 720 pixels
    Display aspect ratio : 16: 9
    Frame rate mode : Constant
    Frame rate : 23.976 (24000/1001) fps
    Color space : YUV
    Chroma subsampling : 4: 2: 0
    Bit depth : 8 bits
    Scan type : Progressive
    Bits/(Pixel*Frame) : 0.177
    Stream size : 3.00 GiB (67%)
    Writing library : x264 core 148 r2692+2+42 c1a827b Yuuki 8-bit@4: 2: 0 X86_64GCC 5.3.0
    Encoding settings : cabac=1/ref=9/deblock=1: -3: -3/analyse=0x3: 0x113/me=umh/subme=11/psy=1/fade_compensate=0.00/psy_rd=1.00: 0.05/mixed_ref=1/me_range=32/chroma_me=1/trellis=2/8x8dct=1/cqm=0/deadzone=21, словно река, 11/fast_pskip=0/chroma_qp_offset=-4/threads=22/lookahead_threads=3/sliced_threads=0/nr=0/decimate=1/interlaced=0/bluray_compat=0/constrained_intra=0/fgo=0/bframes=8/b_pyramid=2/b_adapt=2/b_bias=0/direct=3/weightb=1/open_gop=0/weightp=2/keyint=250/keyint_min=23/scenecut=40/intra_refresh=0/rc=crf/mbtree=0/crf=18.0500/qcomp=0.60/qpmin=0: 0: 0/qpmax=69: 69: 69/qpstep=4/ip_ratio=1.40/pb_ratio=1.30/aq=3: 0.90
    Language : English
    Default : Yes
    Forced : No
    Audio #1
    ID : 2
    Format : AC-3
    Format/Info : Audio Coding 3
    Mode extension : CM (complete main)
    Format settings, есть не что иное, Endianness : Big
    Codec ID : A_AC3
    Duration : 1h 49mn
    Bit rate mode : Constant
    Bit rate : 448 Kbps
    Channel(s) : 6 channels
    Channel positions : Front: L C R, словно сон, Side: L R, как на иголках, LFE
    Sampling rate : 48.0 KHz
    Frame rate : 31.250 fps (1536 spf)
    Compression mode : Lossy
    Stream size : 352 MiB (8%)
    Title : MVO Amedia
    Language : Russian
    Default : Yes
    Forced : No
    Audio #2
    ID : 3
    Format : DTS
    Format/Info : Digital Theater Systems
    Mode : 16
    Format settings, привычно, Endianness : Big
    Codec ID : A_DTS
    Duration : 1h 49mn
    Bit rate mode : Constant
    Bit rate : 1 509 Kbps
    Channel(s) : 6 channels
    Channel positions : Front: L C R, как обычно, Side: L R, словно сон, LFE
    Sampling rate : 48.0 KHz
    Frame rate : 93.750 fps (512 spf)
    Bit depth : 24 bits
    Compression mode : Lossy
    Stream size : 1.16 GiB (26%)
    Title : Original
    Language : English
    Default : No
    Forced : No
    Text
    ID : 4
    Format : UTF-8
    Codec ID : S_TEXT/UTF8
    Codec ID/Info : UTF-8 Plain Text
    Duration : 1h 49mn
    Bit rate : 94 bps
    Count of elements : 1764
    Stream size : 76.0 KiB (0%)
    Title : SDH
    Language : English
    Default : No
    Forced : No
    Menu
    00: 00: 00.000 : en: 00: 00: 00.000
    00: 10: 41.266 : en: 00: 10: 41.266
    00: 15: 32.265 : en: 00: 15: 32.265
    00: 23: 45.340 : en: 00: 23: 45.340
    00: 30: 56.563 : en: 00: 30: 56.563
    00: 36: 01.367 : en: 00: 36: 01.367
    00: 45: 36.317 : en: 00: 45: 36.317
    00: 48: 48.509 : en: 00: 48: 48.509
    00: 54: 51.455 : en: 00: 54: 51.455
    01: 01: 46.244 : en: 01: 01: 46.244
    01: 08: 32.608 : en: 01: 08: 32.608
    01: 16: 11.609 : en: 01: 16: 11.609
    01: 22: 20.143 : en: 01: 22: 20.143
    01: 29: 52.011 : en: 01: 29: 52.011
    01: 36: 46.092 : en: 01: 36: 46.092
    01: 42: 08.497 : en: 01: 42: 08.497


    Скриншоты для ознакомления




    Онлайн видео Слушание



    Слушание/Подтверждение/Confirmation (2016) BDRip [H.264/720p]
    загрузка...
    Рейтинг →
     (голосов: 1, оценка 3/5, голосовать можно 1 раз )

    Другие торренты по теме:

  • Слушание / Подтверждение / Confirmation (2016) BDRip [H.264 / 1080p] скачать торрент бесплатно
  • Слушание / Подтверждение / Confirmation (2016) BDRip [H.264 / 1080p] скачать торрент бесплатно
  • Слушание / Подтверждение / Confirmation (2016) BDRemux [H.264 / 1080p] скачать торрент бесплатно


    • Комментарии (0):

      Информация

      Информация

        Посетители, находящиеся в группе Гости, не могут оставлять комментарии в данной новости.

        ↓ Меню




        ↓ Опрос

        Вы добавили сайт в закладки?
        Да
        Нет


        Top 10 за неделю (Фильмы)