.
Авторизация | Регистрация
Хочешь лучшие торренты? Добавь свой email!
Добавить

Торрент скачать бесплатно

» » Без обязательств / Casual (2015) WEBRip / WEB-DLRip (сезон 1, серии 1-10 из 10) BaibaKo торрент скачать бесплатно




    Без обязательств / Casual (2015) WEBRip / WEB-DLRip (сезон 1, серии 1-10 из 10) BaibaKo торрент скачать бесплатно

    Опубликовал: Админ | Дата: 31-07-2016, 04:03 | Просмотров: 137

    Производство: США
    Жанр: драма, комедия
    Режиссер: Триша Брок, Джейсон Райтман, Майкл Уивер, Макс Уинклер, Фред Сэвидж

    Актеры
    Микейла Уоткинс, Томми Дьюи, Тара Барр, Фрэнсис Конрой, Патрик Хьюсингер и др.

    Описание

    Сюжет комедии сосредоточен на холостяке и его разведенной сестре, воспитывающей подростка. А действие разворачивается вокруг попыток брата и сестры найти друг другу достойную пару.

    Продолжительность: ~00: 26: 00 серия
    Качество видео: WEBRip
    Перевод: Многоголосый закадровый, профессиональный -BaibaKo
    Реклама: присутствуют аудио, видео, текстовые вставки рекламы.
    Видео: XVID, 720x400 (16: 9), ~1492 Кбит/сек
    Аудио #1 Rus: MP3, 48, 0 КГц, 2 канала, 192 Кбит/сек — многоголосый закадровый
    Аудио #2 Eng: MP3, 48, 0 КГц, 2 канала, 192 Кбит/сек — оригинал
    Код:

    Casual.s01e01.WEBRip.XviD.Rus.Eng.BaibaKo.tv.avi
    Format : AVI
    Format/Info : Audio Video Interleave
    File size : 345 MiB
    Duration : 25 min
    Overall bit rate : 1 890 kb/s
    Writing application : VirtualDubMod 1.5.10.2 (build 2542/release)
    Writing library : VirtualDubMod build 2542/release
    Video
    ID : 0
    Format : MPEG-4 Visual
    Format profile : Advanced Simple@L5
    Format settings, BVOP : 2
    Format settings, QPel : No
    Format settings, GMC : No warppoints
    Format settings, Matrix : Default (H.263)
    Codec ID : XVID
    Codec ID/Hint : XviD
    Duration : 25 min
    Bit rate : 1 492 kb/s
    Width : 720 pixels
    Height : 400 pixels
    Display aspect ratio : 16:9
    Frame rate : 23.976 (24000/1001) FPS
    Color space : YUV
    Chroma subsampling : 4:2:0
    Bit depth : 8 bits
    Scan type : Progressive
    Compression mode : Lossy
    Bits/(Pixel*Frame) : 0.216
    Stream size : 272 MiB (79%)
    Writing library : XviD 65
    Audio #1
    ID : 1
    Format : MPEG Audio
    Format version : Version 1
    Format profile : Layer 3
    Mode : Joint stereo
    Mode extension : MS Stereo
    Codec ID : 55
    Codec ID/Hint : MP3
    Duration : 25 min
    Bit rate mode : Constant
    Bit rate : 192 kb/s
    Channel(s) : 2 channels
    Sampling rate : 48.0 kHz
    Compression mode : Lossy
    Stream size : 35.0 MiB (10%)
    Alignment : Aligned on interleaves
    Interleave, duration : 42 ms (1.00 video frame)
    Interleave, preload duration : 504 ms
    Audio #2
    ID : 2
    Format : MPEG Audio
    Format version : Version 1
    Format profile : Layer 3
    Mode : Joint stereo
    Mode extension : MS Stereo
    Codec ID : 55
    Codec ID/Hint : MP3
    Duration : 25 min
    Bit rate mode : Constant
    Bit rate : 192 kb/s
    Channel(s) : 2 channels
    Sampling rate : 48.0 kHz
    Compression mode : Lossy
    Stream size : 35.0 MiB (10%)
    Alignment : Aligned on interleaves
    Interleave, duration : 42 ms (1.00 video frame)
    Interleave, preload duration : 504 ms


    Скриншоты для ознакомления




    Онлайн видео Без обязательств



    Без обязательств/Casual (2015) WEBRip/WEB-DLRip (сезон 1, серии 1-10 из 10) BaibaKo
    загрузка...
    Рейтинг →
     (голосов: 1, оценка 5/5, голосовать можно 1 раз )

    Другие торренты по теме:

  • Без обязательств / Casual (2016) WEB-DLRip [H.264 / 1080p-LQ] (сезон 2, серии 1-7 из 13) BaibaKo (обновляемая)


    • Комментарии (0):

      Информация

      Информация

        Посетители, находящиеся в группе Гости, не могут оставлять комментарии в данной новости.

        ↓ Меню




        ↓ Опрос

        Вы добавили сайт в закладки?
        Да
        Нет


        Top 10 за месяц (Фильмы)