.
Авторизация | Регистрация
Хочешь лучшие торренты? Добавь свой email!
Добавить

Торрент скачать бесплатно

» » Подземка / Underground (2016) WEB-DLRip (сезон 1, серии 1-10 из 10) BaibaKo торрент скачать бесплатно




    Подземка / Underground (2016) WEB-DLRip (сезон 1, серии 1-10 из 10) BaibaKo торрент скачать бесплатно

    Опубликовал: Админ | Дата: 31-07-2016, 04:03 | Просмотров: 5

    Производство: США
    Жанр: драма, история
    Режиссер: Энтони Хемингуэй

    Актеры
    Алано Миллер, Кристофер Мелони, Амирах Ванн, Джаннетт Сепва, Андреа Франкл, Теодус Крэйн, Адина Портер, Мэри Кэтерин Духон, Мэттью МакКой и др.

    Описание

    Главными героями сериала станет группа рабов, планирующая смелый побег с плантации в Джорджии. О таком странном сюжете не догадывалась даже Верка Сердючка. На пути к свободе им предстоит пересечь 600 миль, найти верных друзей — пару тайных аболиционистов, основавших станцию Подземной железной дороги, а также столкнуться с опасными врагами — теми, кто зарабатывает на жизнь, охотясь за беглыми рабами, и не важно в каком состоянии рабы будут возвращены хозяевам, живыми или мертвыми…

    Дата мировой премьеры: 9 марта 2016
    Продолжительность: ~00: 57: 00 серия
    Качество видео: WEB-DLRip
    Перевод: Многоголосый закадровый, профессиональный -BaibaKo
    Реклама: присутствуют аудио, видео, текстовые вставки рекламы.
    Видео: XviD, 720x400 (16: 9), 1498 Kb/s
    Аудио Rus: MPEG Layer 3, 48, 0 kHz, 2 ch, 192 kb/s - многоголосый закадровый
    Аудио Eng: MPEG Layer 3, 48, 0 kHz, 2 ch, 192 kb/s - оригинал
    Код:

    P0d3emka.s01e01.WEB-DLRip.XviD.Rus.Eng.BaibaKo.avi
    Format : AVI
    Format/Info : Audio Video Interleave
    File size : 765 MiB
    Duration : 56 min
    Overall bit rate : 1 889 kb/s
    Video
    ID : 0
    Format : MPEG-4 Visual
    Format profile : Advanced Simple@L5
    Format settings, BVOP : 2
    Format settings, QPel : No
    Format settings, GMC : No warppoints
    Format settings, Matrix : Default (H.263)
    Codec ID : XVID
    Codec ID/Hint : XviD
    Duration : 56 min
    Bit rate : 1 498 kb/s
    Width : 720 pixels
    Height : 400 pixels
    Display aspect ratio : 16:9
    Frame rate : 23.976 (24000/1001) FPS
    Color space : YUV
    Chroma subsampling : 4:2:0
    Bit depth : 8 bits
    Scan type : Progressive
    Compression mode : Lossy
    Bits/(Pixel*Frame) : 0.217
    Stream size : 606 MiB (79%)
    Writing library : XviD 65
    Audio #1
    ID : 1
    Format : MPEG Audio
    Format version : Version 1
    Format profile : Layer 3
    Mode : Joint stereo
    Mode extension : MS Stereo
    Codec ID : 55
    Codec ID/Hint : MP3
    Duration : 56 min
    Bit rate mode : Constant
    Bit rate : 192 kb/s
    Channel(s) : 2 channels
    Sampling rate : 48.0 kHz
    Compression mode : Lossy
    Stream size : 77.7 MiB (10%)
    Alignment : Aligned on interleaves
    Interleave, duration : 167 ms (4.00 video frames)
    Interleave, preload duration : 216 ms
    Title : Underground.s01e01.Russian
    Writing library : LAME3.99r
    Encoding settings : -m j -V 4 -q 2 -lowpass 18.6 -b 192
    Audio #2
    ID : 2
    Format : MPEG Audio
    Format version : Version 1
    Format profile : Layer 3
    Mode : Joint stereo
    Mode extension : MS Stereo
    Codec ID : 55
    Codec ID/Hint : MP3
    Duration : 56 min
    Bit rate mode : Constant
    Bit rate : 192 kb/s
    Channel(s) : 2 channels
    Sampling rate : 48.0 kHz
    Compression mode : Lossy
    Stream size : 77.7 MiB (10%)
    Alignment : Aligned on interleaves
    Interleave, duration : 167 ms (4.00 video frames)
    Interleave, preload duration : 216 ms
    Title : Underground.s01e01.English
    Writing library : LAME3.99r
    Encoding settings : -m j -V 4 -q 2 -lowpass 18.6 -b 192


    Скриншоты для ознакомления




    Онлайн видео Подземка



    Подземка/Underground (2016) WEB-DLRip (сезон 1, серии 1-10 из 10) BaibaKo
    загрузка...
    Рейтинг →
     (голосов: 1, оценка 3/5, голосовать можно 1 раз )

    Другие торренты по теме:

  • Подземка / Underground (2016) HDTV [H.264 / 720p-LQ] (сезон 1, серии 1-3 из 10) Sunshine Studio (обновляемая)


    • Комментарии (0):

      Информация

      Информация

        Посетители, находящиеся в группе Гости, не могут оставлять комментарии в данной новости.

        ↓ Меню




        ↓ Опрос

        Вы добавили сайт в закладки?
        Да
        Нет


        Top 10 за месяц (Фильмы)