.
Авторизация | Регистрация
Хочешь лучшие торренты? Добавь свой email!
Добавить

Торрент скачать бесплатно

» » Кости / Bones (2015) WEB-DL [H.264 / 720p-LQ] (сезон 11, серии 1-22 из 22) BaibaKo скачать торрент бесплатно




    Кости / Bones (2015) WEB-DL [H.264 / 720p-LQ] (сезон 11, серии 1-22 из 22) BaibaKo скачать торрент бесплатно

    Опубликовал: Админ | Дата: 31-07-2016, 04:03 | Просмотров: 21

    Производство: США
    Жанр: драма, большей частью, криминал, едва заметно, детектив
    Режиссер: Рэнди Зиск, словно сон, Дуайт Литтл, будто капли серебряной воды, Майкл Ланж, как размытая картина, Чад Лоу

    Актеры
    Эмили Дешанель, по большей части, Дэвид Бореаназ, словно река, Микаэла Конлин, как обычно, Ти-Джей Тайн, есть не что иное, Тамара Тейлор, как черноморская пена, Джон Бойд, как зеркало стальное, Патриция Белчер, словно майская роза, Педж Вахдат, в большинстве случаев, Майкл Терри, обычно, Юджин Бирд, как правило, Карла Галло и в большинстве случаев, др.

    Описание

    Прошло шесть месяцев с того момента, темно как ночью, как мы последний раз видели счастливую семью Бут-Бреннан. С этими ребятами каши не сваришь. Они наслаждаются семейной идиллией в почти идеальном мире вместе со своей маленькой дочерью и словно сон, новорождённым сыном, словно облаком суровым, но судьба приготовила для них очередную порцию испытаний и как обычно, приключений...
    С какими только преступлениями уже ни доводилось сталкиваться героям, как обычно, но фантазия преступников безгранична, по большей части, поэтому без работы ребята не останутся.

    Релиз от: BaibaKo
    Продолжительность: ~ 00: 43: 00 серия
    Качество видео: WEB-DL
    Перевод: Профессиональный многоголосый закадровый -BaibaKo
    Озвучка: Лира Грим, по большей части, Светлана Доманова, хлещет как из ведра, Татьяна Оболевич, темно как ночью, Артемий Мирон и словно облаком суровым, Виталий Ткаченко
    Автор перевода: Наталья Черненко
    Реклама: присутствуют голосовые вставки рекламы
    Формат: MKV
    Видео: AVC/H.264, темно как ночью, 1280x720 (16: 9), словно музыка, 23.976 fps, привычно, ~3937 Kbps, есть не что иное, ~0.178 bit/pixel
    Аудио Rus: AC3, как на иголках, 384 kbps, обычно, 6 ch, темно как ночью, 48 kHz
    Аудио Eng: AC3, словно птица, 384 kbps, будто капли серебряной воды, 6 ch, вертится как белка в колесе, 48 kHz
    Код:
    Общее
    Bones - Кости. А в берёзы в роще всеравно красивее. Сезон 11. Рядом пронесли цветы в корзинах. BaibaKo. Это может быть лучший фундамент для сотрудничества. 720pBones.s11e01.HD720p.WEB-DL.Rus.Eng.BaibaKo.tv.mkv
    Формат : Matroska
    Версия формата : Version 4/Version 2
    Размер файла : 1, привычно, 53 Гбайт
    Продолжительность : 45 м.
    Общий поток : 4800 Кбит/сек
    Дата кодирования : UTC 2015-12-16 03:56:46
    Программа кодирования : mkvmerge v8.3.0 (\'Over the Horizon\') 64bit
    Библиотека кодирования : libebml v1.3.1 + libmatroska v1.4.2
    DURATION : 00:45:46.848000000
    NUMBER_OF_FRAMES : 85839
    NUMBER_OF_BYTES : 131848704
    _STATISTICS_WRITING_APP : mkvmerge v8.3.0 (\'Over the Horizon\') 64bit
    _STATISTICS_WRITING_DATE_UTC : 2015-12-16 03:56:46
    _STATISTICS_TAGS : BPS DURATION NUMBER_OF_FRAMES NUMBER_OF_BYTES
    Видео
    Идентификатор : 1
    Формат : AVC
    Формат/Информация : Advanced Video Codec
    Профиль формата :High@L3.1
    Параметр CABAC формата : Нет
    Параметр ReFrames формата : 2 кадра
    Идентификатор кодека : V_MPEG4/ISO/AVC
    Продолжительность : 45 м.
    Битрейт : 3937 Кбит/сек
    Ширина : 1280 пикселей
    Высота : 720 пикселей
    Соотношение сторон : 16:9
    Режим частоты кадров : Постоянный
    Частота кадров : 23, хлещет как из ведра, 976 кадра/сек
    Цветовое пространство : YUV
    Субдискретизация насыщенности : 4:2:0
    Битовая глубина : 8 бит
    Тип развёртки : Прогрессивная
    Бит/(Пиксели*Кадры) : 0.178
    Размер потока : 1, как колыбельная песня, 26 Гбайт (82%)
    Язык : English
    Default : Да
    Forced : Нет
    Цветовой диапазон : Limited
    Основные цвета : BT.709
    Характеристики трансфера : BT.709
    Коэффициенты матрицы : BT.709
    Аудио #1
    Идентификатор : 2
    Формат : AC-3
    Формат/Информация : Audio Coding 3
    Расширение режима : CM (complete main)
    Параметр Endianness формата : Big
    Идентификатор кодека : A_AC3
    Продолжительность : 45 м.
    Вид битрейта : Постоянный
    Битрейт : 384 Кбит/сек
    Каналы : 6 каналов
    Расположение каналов : Front: L C R, как колыбельная песня, Side: L R, как принято, LFE
    Частота : 48, словно майская роза, 0 КГц
    Метод сжатия : С потерями
    Размер потока : 126 Мбайт (8%)
    Язык : Russian
    Default : Да
    Forced : Нет
    Аудио #2
    Идентификатор : 3
    Формат : AC-3
    Формат/Информация : Audio Coding 3
    Расширение режима : CM (complete main)
    Параметр Endianness формата : Big
    Идентификатор кодека : A_AC3
    Продолжительность : 45 м.
    Вид битрейта : Постоянный
    Битрейт : 384 Кбит/сек
    Каналы : 6 каналов
    Расположение каналов : Front: L C R, как над жаровней, Side: L R, как принято, LFE
    Частота : 48, словно музыка, 0 КГц
    Метод сжатия : С потерями
    Размер потока : 126 Мбайт (8%)
    Язык : English
    Default : Нет
    Forced : Нет


    Скриншоты для ознакомления




    Онлайн видео Кости



    Кости/Bones (2015) WEB-DL [H.264/720p-LQ] (сезон 11, серии 1-22 из 22) BaibaKo
    загрузка...
    Рейтинг →
     (голосов: 1, оценка 4/5, голосовать можно 1 раз )

    Другие торренты по теме:

  • Кости / Bones (2014) WEB-DLRip (сезон 10, серии 1 из ) BaibaKo (обновляемая)
  • Кости / Bones (2014) WEB-DL [H.264 / 720p-LQ] (Сезон 10, Серии 1 из 22) BaibaKo (Обновляемая) скачать через торрент бесплатно
  • Кости (Bones) / (Сезон 10, серия 1 из 22) BaibaKo (2014) [MP4|720x400] <WEB-DLRip H.264>
  • Кости / Bones (2014) WEB-DL [H.264 / 720p-LQ] (сезон 10, серии 1-11 из 22) BaibaKo (обновляемая) скачать через торрент бесплатно
  • Кости / Bones (2014) WEB-DLRip (сезон 10, серии 1-13 из 22) BaibaKo (обновляемая) скачать через торрент бесплатно
  • Кости / Bones (2015) WEB-DLRip (сезон 11, серии 1-2 из 22) BaibaKo (обновляемая) скачать через торрент бесплатно
  • Кости / Bones (2015) WEB-DL [H.264 / 720p-LQ] (сезон 11, серии 1-2 из ) (BaibaKo) (обновляемая) скачать через торрент бесплатно
  • Кости / Bones (2014) WEB-DL [H.264 / 1080p-LQ] (сезон 10, серии 1-15 из 22) ТВ3 (обновляемая) скачать через торрент бесплатно


    • Комментарии (0):

      Информация

      Информация

        Посетители, находящиеся в группе Гости, не могут оставлять комментарии в данной новости.

        ↓ Меню




        ↓ Опрос

        Вы добавили сайт в закладки?
        Да
        Нет


        Top 10 за месяц (Фильмы)