.
Авторизация | Регистрация
Хочешь лучшие торренты? Добавь свой email!
Добавить

Торрент скачать бесплатно

» » Безмозглые / BrainDead (2016) WEB-DLRip [H.264 / 1080p-LQ] (сезон 1, серии 1-5 из 13) BaibaKo (обновляемая) скачать торрент бесплатно




    Безмозглые / BrainDead (2016) WEB-DLRip [H.264 / 1080p-LQ] (сезон 1, серии 1-5 из 13) BaibaKo (обновляемая) скачать торрент бесплатно

    Опубликовал: Админ | Дата: 31-07-2016, 04:03 | Просмотров: 156

    Производство: США
    Жанр: ужасы, обычно, фантастика, в большинстве случаев, драма, как обычно, комедия
    Режиссер: Роберт Кинг

    Актеры
    Жан Максвелл, будто капли серебряной воды, Бет Мэлоун, есть не что иное, Хэппи Андерсон, как размытая картина, Стефан Канкен, едва заметно, Чарльз Семине, как на иголках, Келли Аарон, как колыбельная песня, Джек Димич, чаще всего, Нэйтан Фергюсон, большей частью, Гленн Флешлер, словно река, Джонни Гилл и словно облаком суровым, др.

    Описание

    Молодой человек по имени Хил оказывается настоящим счастливчиком - ему уготовано служить на Правительство США. Помоему это бабушкины сказки. Однако главный герой на первых радостях назначения на столь ответственную должность, привычно, сталкивается с неприятностями. Это может быть лучший фундамент для сотрудничества. Он выясняет, как принято, что по сути американского правительства не существует в принципе. Да м, ангельское терпение. К тому же Хилл становится свидетелем нападения на Землю инопланетян, как зеркало стальное, которые через свою икру просачиваются в тела конгрессменов и как правило, контролируют их разум. С этими ребятами каши не сваришь. Что же теперь делать? Расскажешь кому - сразу отправят в дурку. Где то в небе орёл громко закричал и расправил крылья. Придется Хилу все разруливать самому.

    Дата мировой премьеры: 13 июня 2016
    Продолжительность: ~00: 45: 00 серия
    Качество видео: WEB-DLRip
    Перевод: Многоголосый закадровый, словно майская роза, профессиональный -BaibaKo
    Реклама: присутствуют аудио, словно облаком суровым, видео, как на иголках, текстовые вставки рекламы.
    Видео: AVC/H.264, как обычно, 1920х1080 (16: 9), как обычно, ~5165 Kbps
    Аудио #1 Rus: AC3, словно майская роза, 6 ch, словно птица, 384 kbps - многоголосый закадровый
    Аудио #2 Eng: AC3, по большей части, 6 ch, в большинстве случаев, 384 kbps - оригинальный
    Код:

    BrainDead.s01e01.HD1080p.WEB-DL.Rus.Eng.BaibaKo.tv.mkv
    Format : Matroska
    Format version : Version 4/Version 2
    File size : 1.82 GiB
    Duration : 44 min
    Overall bit rate : 5 935 kb/s
    Encoded date : UTC 2016-06-15 12:25:09
    Writing application : mkvmerge v9.1.0 (\'Little Earthquakes\') 64bit
    Writing library : libebml v1.3.3 + libmatroska v1.4.4
    Video
    ID : 1
    Format : AVC
    Format/Info : Advanced Video Codec
    Format profile : High@L4
    Format settings, по большей части, CABAC : Yes
    Format settings, словно облаком суровым, ReFrames : 4 frames
    Codec ID : V_MPEG4/ISO/AVC
    Duration : 44 min
    Bit rate : 5 165 kb/s
    Width : 1 920 pixels
    Height : 1 080 pixels
    Display aspect ratio : 16:9
    Frame rate mode : Constant
    Frame rate : 23.976 (23976/1000) FPS
    Color space : YUV
    Chroma subsampling : 4:2:0
    Bit depth : 8 bits
    Scan type : Progressive
    Bits/(Pixel*Frame) : 0.104
    Stream size : 1.59 GiB (87%)
    Writing library : x264 core 148 r2692 64f4e24
    Encoding settings : cabac=1/ref=3/deblock=1:0:0/analyse=0x3:0x113/me=hex/subme=7/psy=1/psy_rd=1.00:0.00/mixed_ref=1/me_range=16/chroma_me=1/trellis=1/8x8dct=1/cqm=0/deadzone=21, как над жаровней, 11/fast_pskip=1/chroma_qp_offset=-2/threads=12/lookahead_threads=2/sliced_threads=0/nr=0/decimate=1/interlaced=0/bluray_compat=0/constrained_intra=0/bframes=3/b_pyramid=2/b_adapt=1/b_bias=0/direct=1/weightb=1/open_gop=0/weightp=2/keyint=240/keyint_min=23/scenecut=40/intra_refresh=0/rc_lookahead=40/rc=crf/mbtree=1/crf=18.0/qcomp=0.60/qpmin=0/qpmax=69/qpstep=4/ip_ratio=1.40/aq=1:1.00
    Default : No
    Forced : No
    Audio #1
    ID : 2
    Format : AC-3
    Format/Info : Audio Coding 3
    Mode extension : CM (complete main)
    Format settings, как принято, Endianness : Big
    Codec ID : A_AC3
    Duration : 44 min
    Bit rate mode : Constant
    Bit rate : 384 kb/s
    Channel(s) : 6 channels
    Channel positions : Front: L C R, будто капли серебряной воды, Side: L R, хлещет как из ведра, LFE
    Sampling rate : 48.0 kHz
    Frame rate : 31.250 FPS (1536 spf)
    Compression mode : Lossy
    Stream size : 121 MiB (6%)
    Language : Russian
    Default : Yes
    Forced : No
    Audio #2
    ID : 3
    Format : AC-3
    Format/Info : Audio Coding 3
    Mode extension : CM (complete main)
    Format settings, вертится как белка в колесе, Endianness : Big
    Codec ID : A_AC3
    Duration : 44 min
    Bit rate mode : Constant
    Bit rate : 384 kb/s
    Channel(s) : 6 channels
    Channel positions : Front: L C R, словно музыка, Side: L R, словно майская роза, LFE
    Sampling rate : 48.0 kHz
    Frame rate : 31.250 FPS (1536 spf)
    Compression mode : Lossy
    Stream size : 121 MiB (6%)
    Language : English
    Default : No
    Forced : No


    Скриншоты для ознакомления




    Онлайн видео Безмозглые



    Безмозглые/BrainDead (2016) WEB-DLRip [H.264/1080p-LQ] (сезон 1, серии 1-5 из 13) BaibaKo (обновляемая)
    загрузка...
    Рейтинг →
     (голосов: 1, оценка 4/5, голосовать можно 1 раз )

    Другие торренты по теме:

  • Безмозглые / BrainDead (2016) HDTV [H.264 / 720p-LQ] (сезон 1, серии 1-1 из 13) HamsterStudio (обновляемая)
  • Смерть мозга / Безмозглые / BrainDead (2016) HDTVRip [H.264 / 720p-LQ] (сезон 1, серии 1 из 13) OMSKBIRD (обновляемая)
  • Смерть мозга / Безмозглые / BrainDead (2016) HDTVRip (сезон 1, серии 1 из 13) OMSKBIRD (обновляемая)
  • Безмозглые / BrainDead (2016) WEB-DLRip [H.264 / 720p-LQ] (сезон 1, серии 1 из 13) LostFilm (обновляемая)
  • Безмозглые / Смерть мозга / BrainDead (2016) WEBRip (сезон 1, серии 1 из 13) LostFilm (обновляемая)
  • Безмозглые / Смерть мозга / BrainDead (2016) HDTVRip [H.264] (сезон 1, серии 1 из 13) RATTLEBOX [MP4|1920х1080] (обновляемая)


    • Комментарии (0):

      Информация

      Информация

        Посетители, находящиеся в группе Гости, не могут оставлять комментарии в данной новости.

        ↓ Меню




        ↓ Опрос

        Вы добавили сайт в закладки?
        Да
        Нет


        Top 10 за месяц (Фильмы)