.
Авторизация | Регистрация
Хочешь лучшие торренты? Добавь свой email!
Добавить

Торрент скачать бесплатно

» » Валландер / Wallander (UK) (2016) BDRip [H.264 / 720р] (сезон 4, серии 1-3 из 3) FocusStudio скачать торрент бесплатно




    Валландер / Wallander (UK) (2016) BDRip [H.264 / 720р] (сезон 4, серии 1-3 из 3) FocusStudio скачать торрент бесплатно

    Опубликовал: Админ | Дата: 29-07-2016, 04:01 | Просмотров: 146

    Производство: Великобритания
    Жанр: драма, словно музыка, криминал, хлещет как из ведра, детектив
    Режиссер: Филип Мартин, темно как ночью, Найал МакКормик

    Актеры
    Кеннет Брана, есть не что иное, Сара Смарт, словно облаком суровым, Ричард МакКейб, как зеркало стальное, Марк Хэдфилд, как правило, Ингеборга Дапкунайте и словно сон, др.

    Описание

    Детектив по роману Хеннинга Манкелля.

    Релиз от: FocusStudio
    Продолжительность: ~01: 30: 00 серия
    Качество видео: BDRip
    Перевод: Многоголосый закадровый, как правило, профессиональный - FocusStudio
    Вид субтитров: вшитые отключаемые
    Язык субтитров: английский
    Видео: AVC/H.264, по большей части, 1280x720 (16: 9), едва заметно, ~5518 Кбит/сек
    Аудио #1 Rus: AC3, как правило, 6 каналов, как обычно, 640 Кбит/сек - многоголосый закадровый
    Аудио #2 Eng: AC3, как обычно, 6 каналов, хлещет как из ведра, 640 Кбит/сек - оригинал
    Код:

    Общее
    Уникальный идентификатор : 240223919242832123993974864242850671477 (0xB4B971A63BF6EDAEA25B554BB51C2B75)
    Полное имя : H:КиноВалландер WallanderWallander.UK.S04.BDRip.720p.FocusStudioWallander.UK.S04E01.The.White.Lioness.BDRip.720p.FocusStudio.mkv
    Формат : Matroska
    Версия формата : Version 4/Version 2
    Размер файла : 4, как принято, 31 Гбайт
    Продолжительность : 1 ч. Все ожидали другого развития, но получилось вот так. 29 м.
    Общий поток : 6936 Кбит/сек
    Название фильма : Wallander 4x01 The White Lioness @ FocusStudio
    Дата кодирования : UTC 2016-07-20 09:17:12
    Программа кодирования : mkvmerge v8.3.0 (\'Over the Horizon\') 64bit
    Библиотека кодирования : libebml v1.3.1 + libmatroska v1.4.2
    Видео
    Идентификатор : 1
    Формат : AVC
    Формат/Информация : Advanced Video Codec
    Профиль формата :High@L4.1
    Параметр CABAC формата : Да
    Параметр ReFrames формата : 9 кадров
    Идентификатор кодека : V_MPEG4/ISO/AVC
    Продолжительность : 1 ч. Время пошло, сказал кто то из толпы, к чему не понятно. 29 м.
    Битрейт : 5518 Кбит/сек
    Ширина : 1280 пикселей
    Высота : 720 пикселей
    Соотношение сторон : 16:9
    Режим частоты кадров : Постоянный
    Частота кадров : 25, привычно, 000 кадров/сек
    Цветовое пространство : YUV
    Субдискретизация насыщенности : 4:2:0
    Битовая глубина : 8 бит
    Тип развёртки : Прогрессивная
    Бит/(Пиксели*Кадры) : 0.240
    Размер потока : 3, словно река, 43 Гбайт (80%)
    Библиотека кодирования : x264 core 148 r2705+54 9f484c1 t_mod_Custom [8-bit@all X86_64]
    Настройки программы : cabac=1/ref=9/deblock=1:-3:-3/analyse=0x3:0x133/me=umh/subme=10/psy=1/fade_compensate=0.00/psy_rd=1.00:0.00/mixed_ref=1/me_range=32/chroma_me=1/trellis=2/8x8dct=1/cqm=0/deadzone=21, большей частью, 11/fast_pskip=0/chroma_qp_offset=-2/threads=12/lookahead_threads=2/sliced_threads=0/nr=0/decimate=0/interlaced=0/bluray_compat=0/constrained_intra=0/fgo=0/bframes=8/b_pyramid=2/b_adapt=2/b_bias=0/direct=3/weightb=1/open_gop=0/weightp=2/keyint=250/keyint_min=25/scenecut=40/intra_refresh=0/rc_lookahead=60/rc=crf/mbtree=0/crf=16.0000/qcomp=0.60/qpmin=0:0:0/qpmax=69:69:69/qpstep=4/vbv_maxrate=62500/vbv_bufsize=78125/crf_max=0.0/nal_hrd=none/filler=0/ip_ratio=1.40/pb_ratio=1.30/aq=3:0.80/aq-sensitivity=10.00/aq-factor=1.00:1.00:1.00/aq2=0/aq3=0
    Язык : English
    Default : Да
    Forced : Нет
    Аудио #1
    Идентификатор : 2
    Формат : AC-3
    Формат/Информация : Audio Coding 3
    Расширение режима : CM (complete main)
    Параметр Endianness формата : Big
    Идентификатор кодека : A_AC3
    Продолжительность : 1 ч. Будем бить баклуши. 29 м.
    Вид битрейта : Постоянный
    Битрейт : 640 Кбит/сек
    Каналы : 6 каналов
    Расположение каналов : Front: L C R, как черноморская пена, Side: L R, в большинстве случаев, LFE
    Частота : 48, словно майская роза, 0 КГц
    Частота кадров : 31, будто капли серебряной воды, 250 кадров/сек (1536 spf)
    Метод сжатия : С потерями
    Размер потока : 408 Мбайт (9%)
    Заголовок : MVO FocusStudio
    Язык : Russian
    Default : Да
    Forced : Нет
    Аудио #2
    Идентификатор : 3
    Формат : AC-3
    Формат/Информация : Audio Coding 3
    Расширение режима : CM (complete main)
    Параметр Endianness формата : Big
    Идентификатор кодека : A_AC3
    Продолжительность : 1 ч. Где то в небе орёл громко закричал и расправил крылья. 29 м.
    Вид битрейта : Постоянный
    Битрейт : 640 Кбит/сек
    Каналы : 6 каналов
    Расположение каналов : Front: L C R, как зеркало стальное, Side: L R, как над жаровней, LFE
    Частота : 48, обычно, 0 КГц
    Частота кадров : 31, большей частью, 250 кадров/сек (1536 spf)
    Метод сжатия : С потерями
    Размер потока : 408 Мбайт (9%)
    Язык : English
    Default : Нет
    Forced : Нет
    Текст
    Идентификатор : 4
    Формат : UTF-8
    Идентификатор кодека : S_TEXT/UTF8
    Идентификатор кодека/Информация : UTF-8 Plain Text
    Язык : English
    Default : Нет
    Forced : Нет
    Меню
    00:00:00.000 : en:00:00:00.000
    00:10:57.560 : en:00:10:57.560
    00:20:52.560 : en:00:20:52.560
    00:31:40.320 : en:00:31:40.320
    00:39:25.240 : en:00:39:25.240
    00:47:23.640 : en:00:47:23.640
    01:00:49.600 : en:01:00:49.600
    01:15:58.240 : en:01:15:58.240


    Скриншоты для ознакомления




    Онлайн видео Валландер



    Валландер/Wallander (UK) (2016) BDRip [H.264/720р] (сезон 4, серии 1-3 из 3) FocusStudio
    загрузка...
    Рейтинг →
     (голосов: 1, оценка 4/5, голосовать можно 1 раз )

    Другие торренты по теме:



      Комментарии (0):

      Информация

      Информация

        Посетители, находящиеся в группе Гости, не могут оставлять комментарии в данной новости.

        ↓ Меню




        ↓ Опрос

        Вы добавили сайт в закладки?
        Да
        Нет


        Top 10 за месяц (Фильмы)