.
Авторизация | Регистрация
Хочешь лучшие торренты? Добавь свой email!
Добавить

Торрент скачать бесплатно

» » Грач / Посредник (2012) HDTVRip (серии 1-12 из 12) торрент скачать бесплатно




    Грач / Посредник (2012) HDTVRip (серии 1-12 из 12) торрент скачать бесплатно

    Опубликовал: Админ | Дата: 29-07-2016, 04:01 | Просмотров: 1454

    Производство: Россия/К/к UMP (United Multimedia Projects) по заказу Первого канала
    Жанр: детектив, триллер
    Режиссер: Андрей Волгин, Максим Кондратенко

    Актеры
    Павел Трубинер, Светлана Иванова, Игорь Старосельцев, Алексей Лонгин, Юлия Мельникова, Иулиана Куликова, Елена Гольянова, Светлана Антропова, Галина Сазонова, Сергей Греков и др.

    Описание

    По мотивам французского 6-серийного телефильма GRECO (Греко). Во время операции по освобождению заложника майор МВД Сергей Грачев, по прозвищу Грач, получает пулю в голову. Он чудом избегает смерти, несмотря на то, что врачи не смогли извлечь пулю. Ранение полностью меняет жизнь Грача. Самое интересное в это истории, что об этом Папа Римский ничего не знал. Он пережил клиническую смерть, видел таинственный тоннель, о котором рассказывают многие умирающие. И, самое главное, Грачу начали являться призраки - духи убитых людей, чьи убийцы до сих пор не найдены. Отвечая на молчаливые просьбы умерших, используя их подсказки, Грач поднимает и расследует старые, безнадежные дела...

    Возраст: 16+ (зрителям, достигшим 16 лет)
    Продолжительность: ~ 00: 52: 00 серия
    Качество видео: HDTVRip
    Видео: Xvid, 720x400 (16: 9), ~1876 Kbps
    Аудио: AC3, 2 ch, 192 kbps, CBR
    Код:

    Общее
    Полное имя : D:Мои фильмыPosrednik_Grach_1-12iz12_2012_XviD_HDTVRip1.Контакт.avi
    Формат : AVI
    Формат/Информация : Audio Video Interleave
    Размер файла : 746 Мбайт
    Продолжительность : 50 м.
    Общий поток : 2077 Кбит/сек
    Программа кодирования : VirtualDubMod 1.5.10.3 | (build 2550/release)
    Библиотека кодирования : VirtualDub build 35491/release
    Видео
    Идентификатор : 0
    Формат : MPEG-4 Visual
    Профиль формата : Advanced Simple@L5
    Параметр BVOP формата : 2
    Параметр QPel формата : Нет
    Параметр GMC формата : Без точки перехода
    Параметр матрицы формата : Default (H.263)
    Идентификатор кодека : XVID
    Идентификатор кодека/Подсказка : XviD
    Продолжительность : 50 м.
    Битрейт : 1876 Кбит/сек
    Ширина : 720 пикселей
    Высота : 400 пикселей
    Соотношение сторон : 16:9
    Частота кадров : 25, 000 кадров/сек
    Цветовое пространство : YUV
    Субдискретизация насыщенности : 4:2:0
    Битовая глубина : 8 бит
    Тип развёртки : Прогрессивная
    Метод сжатия : С потерями
    Бит/(Пиксели*Кадры) : 0.260
    Размер потока : 673 Мбайт (90%)
    Библиотека кодирования : XviD 67
    Аудио
    Идентификатор : 1
    Формат : AC-3
    Формат/Информация : Audio Coding 3
    Расширение режима : CM (complete main)
    Параметр Endianness формата : Big
    Идентификатор кодека : 2000
    Продолжительность : 50 м.
    Вид битрейта : Постоянный
    Битрейт : 192 Кбит/сек
    Каналы : 2 канала
    Расположение каналов : Front: L R
    Частота : 48, 0 КГц
    Частота кадров : 31, 250 кадров/сек (1536 spf)
    Метод сжатия : С потерями
    Размер потока : 68, 9 Мбайт (9%)
    Выравнивание : Разделение по промежуткам
    Продолжительность промежутка : 40 мс. (1, 00 видеокадр)
    Время предзагрузки промежутка : 500 мс.


    Скриншоты для ознакомления




    Онлайн видео Грач



    Грач/Посредник (2012) HDTVRip (серии 1-12 из 12)
    загрузка...
    Рейтинг →
     (голосов: 1, оценка 4/5, голосовать можно 1 раз )

    Другие торренты по теме:

  • Гера Грач - Жиган (2002) [FLAC|image+.cue]<Шансон> скачать через торрент бесплатно
  • Гера Грач - Зверь (2000) [APE|image +.cue]<Шансон> скачать через торрент бесплатно
  • Виктор Марковский, Игорь Приходченко | Су-25 «Грач». Все о грозном штурмовике (2016) [PDF]


    • Комментарии (0):

      Информация

      Информация

        Посетители, находящиеся в группе Гости, не могут оставлять комментарии в данной новости.

        ↓ Меню




        ↓ Опрос

        Вы добавили сайт в закладки?
        Да
        Нет


        Top 10 за месяц (Фильмы)