.
Авторизация | Регистрация
Хочешь лучшие торренты? Добавь свой email!
Добавить

Торрент скачать бесплатно

» » Шаманка (2015) HDTVRip (серии 1-20 из 20) торрент скачать бесплатно




    Шаманка (2015) HDTVRip (серии 1-20 из 20) торрент скачать бесплатно

    Опубликовал: Админ | Дата: 29-07-2016, 04:01 | Просмотров: 129

    Производство: Россия Студия Панорама
    Жанр: детектив
    Режиссер: Анна Богуславская

    Актеры
    Инна Коляда, Андрей Казаков, Елена Драпеко, Алексей Винников, Андрей Перович, Юрий Архангельский, Андрей Мокеев, Максим Пономарев, Юлия Гришаева, Геннадий Смирнов и др.

    Описание

    Преуспевающий кредитный консультант коммерческого банка Марина Белозёрова после гибели жениха Эрика не находит себе места от горя и безысходности. Очнувшись от мрачного забытья, Марина вспоминает свою встречу с начальником отдела по раскрытию умышленных убийств Владимиром Уваровым, с которым она случайно познакомилась в салоне самолёта. В тот раз Белозёрова спасла всех пассажиров и членов экипажа, вовремя заметив, что пилот находится в прединсультном состоянии. Под впечатлением от невероятной прозорливости и острого ума Марины, Уваров сразу же предложил ей работу в полиции, и теперь она решает принять его предложение, чтобы найти убийцу своего возлюбленного…

    Возраст: 16+ (зрителям, достигшим 16 лет)
    Продолжительность: ~ 00: 42: 00 серия
    Качество видео: HDTVRip
    Видео: Xvid, 720x400 (16: 9), ~1253 Kbps
    Аудио: AC3, 2 ch, 192 kbps, CBR
    Код:

    Общее
    Полное имя : D:Мои фильмыShamanka_1-20iz20_2014_XviD_HDTVRip1.Прерванный полёт.avi
    Формат : AVI
    Формат/Информация : Audio Video Interleave
    Размер файла : 445 Мбайт
    Продолжительность : 42 м.
    Общий поток : 1455 Кбит/сек
    Программа кодирования : VirtualDubMod 1.5.10.3 |www.virtualdub-fr.org|| (build 2550/release)
    Библиотека кодирования : VirtualDub build 35491/release
    Видео
    Идентификатор : 0
    Формат : MPEG-4 Visual
    Профиль формата : Advanced Simple@L5
    Параметр BVOP формата : 2
    Параметр QPel формата : Нет
    Параметр GMC формата : Без точки перехода
    Параметр матрицы формата : Default (H.263)
    Идентификатор кодека : XVID
    Идентификатор кодека/Подсказка : XviD
    Продолжительность : 42 м.
    Битрейт : 1253 Кбит/сек
    Ширина : 720 пикселей
    Высота : 400 пикселей
    Соотношение сторон : 16:9
    Частота кадров : 25, 000 кадров/сек
    Цветовое пространство : YUV
    Субдискретизация насыщенности : 4:2:0
    Битовая глубина : 8 бит
    Тип развёртки : Прогрессивная
    Метод сжатия : С потерями
    Бит/(Пиксели*Кадры) : 0.174
    Размер потока : 384 Мбайт (86%)
    Библиотека кодирования : XviD 67
    Аудио
    Идентификатор : 1
    Формат : AC-3
    Формат/Информация : Audio Coding 3
    Расширение режима : CM (complete main)
    Параметр Endianness формата : Big
    Идентификатор кодека : 2000
    Продолжительность : 42 м.
    Вид битрейта : Постоянный
    Битрейт : 192 Кбит/сек
    Каналы : 2 канала
    Расположение каналов : Front: L R
    Частота : 48, 0 КГц
    Частота кадров : 31, 250 кадров/сек (1536 spf)
    Метод сжатия : С потерями
    Размер потока : 58, 8 Мбайт (13%)
    Выравнивание : Разделение по промежуткам
    Продолжительность промежутка : 40 мс. (1, 00 видеокадр)
    Время предзагрузки промежутка : 500 мс.


    Скриншоты для ознакомления




    Онлайн видео Шаманка (2015) HDTVRip (серии 1



    Шаманка (2015) HDTVRip (серии 1-20 из 20)
    загрузка...
    Рейтинг →
     (голосов: 1, оценка 5/5, голосовать можно 1 раз )

    Другие торренты по теме:

  • Шаманка (2015) SATRip (серии 1-2 из 20) (обновляемая) скачать через торрент бесплатно
  • Шаманка (2015) SATRip [H.264] (серии 1-2 из 20) (обновляемая) скачать через торрент бесплатно
  • Линда - Шаманка (The Best of) (2016) [MP3|320 кб / с] <Pop>


    • Комментарии (0):

      Информация

      Информация

        Посетители, находящиеся в группе Гости, не могут оставлять комментарии в данной новости.

        ↓ Меню




        ↓ Опрос

        Вы добавили сайт в закладки?
        Да
        Нет


        Top 10 за месяц (Фильмы)