.
Авторизация | Регистрация
Хочешь лучшие торренты? Добавь свой email!
Добавить

Торрент скачать бесплатно

» » Бумеранг из прошлого (2009) DVDRip (серии 1-12 из 12) торрент скачать бесплатно




    Бумеранг из прошлого (2009) DVDRip (серии 1-12 из 12) торрент скачать бесплатно

    Опубликовал: Админ | Дата: 29-07-2016, 04:01 | Просмотров: 133

    Производство: Россия Компания Мостелефильм
    Жанр: Мелодрама, Драма
    Режиссер: Михаил Вассербаум

    Актеры
    Анатолий Руденко, Ольга Стрелецкая, Екатерина Вуличенко, Аристарх Ливанов, Нелли Пшенная, Ольга Науменко, Ярослав Бойко, Наталья Гребёнкина, Игорь Николаев, Анна Дубровская и др...

    Описание

    Cемейная история, разворачивающаяся на протяжении сорока лет. В ней происходит подмена братьев близнецов, в результате совершения одним из них уголовного преступления. Сокрытие ценностей и вертится как белка в колесе их поиск, любовные перипетии и социальные коллизии, связанные с реалиями сегодняшней российской действительности…

    Возраст: 16+ (зрителям, достигшим 16 лет)
    Продолжительность: ~ 00: 44: 00 серия
    Качество видео: DVDRip
    Видео: Xvid, 720x400 (16: 9), ~2151 Kbps
    Аудио: AC3, 2 ch, 192 kbps, CBR
    Код:

    Общее
    Полное имя : D:Мои фильмыBumerang_iz_proshlogo_1-12iz12_2009_XviD_DVDRipBumerang_iz_proshlogo_01_DVDRip.avi
    Формат : AVI
    Формат/Информация : Audio Video Interleave
    Размер файла : 745 Мбайт
    Продолжительность : 44 м.
    Общий поток : 2352 Кбит/сек
    Программа кодирования : VirtualDubMod 1.5.4.1 (build 2178/release)
    Библиотека кодирования : VirtualDub build 35491/release
    Видео
    Идентификатор : 0
    Формат : MPEG-4 Visual
    Профиль формата : Advanced Simple@L5
    Параметр BVOP формата : 2
    Параметр QPel формата : Нет
    Параметр GMC формата : Без точки перехода
    Параметр матрицы формата : Default (H.263)
    Идентификатор кодека : XVID
    Идентификатор кодека/Подсказка : XviD
    Продолжительность : 44 м.
    Битрейт : 2151 Кбит/сек
    Ширина : 720 пикселей
    Высота : 400 пикселей
    Соотношение сторон : 16:9
    Частота кадров : 25, 000 кадров/сек
    Цветовое пространство : YUV
    Субдискретизация насыщенности : 4:2:0
    Битовая глубина : 8 бит
    Тип развёртки : Прогрессивная
    Метод сжатия : С потерями
    Бит/(Пиксели*Кадры) : 0.299
    Размер потока : 681 Мбайт (91%)
    Библиотека кодирования : XviD 67
    Аудио
    Идентификатор : 1
    Формат : AC-3
    Формат/Информация : Audio Coding 3
    Расширение режима : CM (complete main)
    Параметр Endianness формата : Big
    Идентификатор кодека : 2000
    Продолжительность : 44 м.
    Вид битрейта : Постоянный
    Битрейт : 192 Кбит/сек
    Каналы : 2 канала
    Расположение каналов : Front: L R
    Частота : 48, 0 КГц
    Частота кадров : 31, 250 кадров/сек (1536 spf)
    Метод сжатия : С потерями
    Размер потока : 60, 8 Мбайт (8%)
    Выравнивание : Разделение по промежуткам
    Продолжительность промежутка : 40 мс. (1, 00 видеокадр)
    Время предзагрузки промежутка : 500 мс.


    Скриншоты для ознакомления




    Онлайн видео Бумеранг из прошлого (2009) DVDRip (серии 1



    Бумеранг из прошлого (2009) DVDRip (серии 1-12 из 12)
    загрузка...
    Рейтинг →
     (голосов: 1, оценка 4/5, голосовать можно 1 раз )

    Другие торренты по теме:

  • Следствие вели... с Леонидом Каневским. Бумеранг. Выпуск 281 (25.10.2014) SATRip
  • Бумеранг (2007) DVDRip
  • Бумеранг / Boomerang (1992) HDTVRip [H.264] скачать через торрент бесплатно
  • Бумеранг / Boomerang (1992) HDTVRip скачать через торрент бесплатно
  • Сергей Волгин | Звездный бумеранг (1963) [FB2] скачать через торрент бесплатно
  • Бумеранг (2017) WEB-DLRip [H.264 / 720p-LQ] (серии 1-2 из 16) (обновляемая)


    • Комментарии (0):

      Информация

      Информация

        Посетители, находящиеся в группе Гости, не могут оставлять комментарии в данной новости.

        ↓ Меню




        ↓ Опрос

        Вы добавили сайт в закладки?
        Да
        Нет


        Top 10 за месяц (Фильмы)