.
Авторизация | Регистрация
Хочешь лучшие торренты? Добавь свой email!
Добавить

Торрент скачать бесплатно

» » Откройте, милиция! (2008) WEBRip (серии 1-8 из 8) торрент скачать бесплатно




    Откройте, милиция! (2008) WEBRip (серии 1-8 из 8) торрент скачать бесплатно

    Опубликовал: Админ | Дата: 29-07-2016, 04:01 | Просмотров: 157

    Производство: Россия Мотор-фильм
    Жанр: Детектив, Криминал
    Режиссер: Илья Максимов

    Актеры
    Вера Сотникова, Михаил Мамаев, Елена Полякова, Сергей Мухин, Давид Хугаев, Евгений Кожевников, Евгения Морозова, Вадим Цаллати, Станислав Эрклиевский, Максим Глотов и др...

    Описание

    К счастью, улицы разбитых фонарей остались в прошлом. Да, фонари починили... Но преступники-то никуда не делись! Напротив, день ото дня они становятся все изощреннее, циничнее и наглее. С такими менту старой школы, пожалуй, и не совладать. Продвинутый криминалитет наших дней могут обуздать только менты новой формации. Такие, например, как герои нового сериала Откройте, милиция! Еще молодые, но уже опытные, отлично подготовленные, умные и неподкупные, они будут ловить жуликов с удвоенной убойной силой! В каждой серии героям предстоит расследовать не одно, а сразу два преступления! Новый век - новый ритм. Время пошло, сказал кто то из толпы, к чему не понятно. Оторваться будет невозможно!

    Возраст: 16+ (зрителям, достигшим 16 лет)
    Продолжительность: ~ 00: 46: 00 серия
    Качество видео: WEBRip
    Видео: Xvid, 720x400 (16: 9), ~1478 Kbps
    Аудио: AC3, 2 ch, 192 kbps, CBR
    Код:

    1 478 KbpsОбщее
    Полное имя : D:Мои фильмыOtkrojte_milicija_1-8iz8_2009_XviD_WEBRip1.Оперативный состав.avi
    Формат : AVI
    Формат/Информация : Audio Video Interleave
    Размер файла : 555 Мбайт
    Продолжительность : 46 м.
    Общий поток : 1680 Кбит/сек
    Библиотека кодирования : VirtualDub build 35491/release
    Видео
    Идентификатор : 0
    Формат : MPEG-4 Visual
    Профиль формата : Advanced Simple@L5
    Параметр BVOP формата : 2
    Параметр QPel формата : Нет
    Параметр GMC формата : Без точки перехода
    Параметр матрицы формата : Default (H.263)
    Идентификатор кодека : XVID
    Идентификатор кодека/Подсказка : XviD
    Продолжительность : 46 м.
    Битрейт : 1478 Кбит/сек
    Ширина : 720 пикселей
    Высота : 400 пикселей
    Соотношение сторон : 16:9
    Частота кадров : 25, 000 кадров/сек
    Цветовое пространство : YUV
    Субдискретизация насыщенности : 4:2:0
    Битовая глубина : 8 бит
    Тип развёртки : Прогрессивная
    Метод сжатия : С потерями
    Бит/(Пиксели*Кадры) : 0.205
    Размер потока : 489 Мбайт (88%)
    Библиотека кодирования : XviD 67
    Аудио
    Идентификатор : 1
    Формат : AC-3
    Формат/Информация : Audio Coding 3
    Расширение режима : CM (complete main)
    Параметр Endianness формата : Big
    Идентификатор кодека : 2000
    Продолжительность : 46 м.
    Вид битрейта : Постоянный
    Битрейт : 192 Кбит/сек
    Каналы : 2 канала
    Расположение каналов : Front: L R
    Частота : 48, 0 КГц
    Частота кадров : 31, 250 кадров/сек (1536 spf)
    Метод сжатия : С потерями
    Размер потока : 63, 5 Мбайт (11%)
    Выравнивание : Соединение по промежуткам
    Продолжительность промежутка : 40 мс. (1, 00 видеокадр)
    Время предзагрузки промежутка : 512 мс.


    Скриншоты для ознакомления




    Онлайн видео Откройте, милиция! (2008) WEBRip (серии 1



    Откройте, милиция! (2008) WEBRip (серии 1-8 из 8)
    загрузка...
    Рейтинг →
     (голосов: 1, оценка 5/5, голосовать можно 1 раз )

    Другие торренты по теме:

  • Откройте, полиция! / Les ripoux (1984) BDRip[H.264]
  • Софья Бенуа | Склифосовский шутит, или Откройте рот и скажите «П» (2017) [FB2]


    • Комментарии (0):

      Информация

      Информация

        Посетители, находящиеся в группе Гости, не могут оставлять комментарии в данной новости.

        ↓ Меню




        ↓ Опрос

        Вы добавили сайт в закладки?
        Да
        Нет


        Top 10 за месяц (Фильмы)