.
Авторизация | Регистрация
Хочешь лучшие торренты? Добавь свой email!
Добавить

Торрент скачать бесплатно

» » Особь / Species (1995) BDRip [H.264 / 1080p-LQ] торрент скачать бесплатно




    Особь / Species (1995) BDRip [H.264 / 1080p-LQ] торрент скачать бесплатно

    Опубликовал: Админ | Дата: 28-07-2016, 04:00 | Просмотров: 33

    Производство: США/Metro Goldwyn Mayer (MGM)
    Жанр: Ужасы, Фантастика
    Режиссер: Роджер Дональдсон

    Актеры
    Бен Кингсли, Майкл Мэдсен, Альфред Молина, Форест Уитакер, Марг Хельгенбергер, Наташа Хенстридж, Мишель Уильямс, Джордан Лунд, Дон Фишер, Скотт МакКенна, Вирджиния Моррис, Джейн Люк

    Описание

    В сверхсекретном научном центре получили из космоса формулу ДНК, которая была воспроизведена и скрещена с женской. В результате получился ребенок, девочка, которая росла не по дням, а по часам. И даже не по часам, а по минутам.
    Напуганные результатами эксперимента, ученые решили уничтожить подопытное существо, но оно сбежало, разбив пуленепробиваемое стекло. А существо из девушки уже превратилось в женщину с очень сексапильной внешностью и жаждало размножаться, к чему и приступило. Но внутри у нее таилось ужасающее чудовище, котоpoe убивало после спаривания самцов.
    Для ее поимки была создана специальная группа экспертов, которая пошла по кровавому следу одержимой материнским инстинктом самки из космоса...

    Возраст: 18+ (зрителям, достигшим 18 лет. запрещено для детей)
    Рейтинг MPAA: R (лицам до 17 лет обязательно присутствие взрослого)
    Релиз от: R.G. Goldenshara
    Продолжительность: 01: 48: 25
    Качество видео: BDRip (1080p-LQ)
    Перевод: Дублированный
    Навигация по главам: есть
    Видео: AVC/H.264, 1920x816 (2.35: 1), ~5322 kbps, 23, 976 fps
    Аудио: AC3, 6 ch, 48 kHz, 448 kbps
    Код:

    General
    Unique ID : 178541310963005169287057024523242459855 (0x8651CE42F84F361BB7019F35711652CF)
    Complete name : D:Мои рипыОсобь.1995.BDRip.1080p.DUB.mkv
    Format : Matroska
    Format version : Version 4/Version 2
    File size : 4.37 GiB
    Duration : 1h 48mn
    Overall bit rate : 5 767 Kbps
    Encoded date : UTC 2016-04-13 14:27:47
    Writing application : mkvmerge v6.3.0 (\'You can\'t stop me!\') built on Jun 28 2013 20:09:41
    Writing library : libebml v1.3.0 + libmatroska v1.4.0
    Video
    ID : 1
    Format : AVC
    Format/Info : Advanced Video Codec
    Format profile :High@L4.1
    Format settings, CABAC : Yes
    Format settings, ReFrames : 5 frames
    Codec ID : V_MPEG4/ISO/AVC
    Duration : 1h 48mn
    Bit rate : 5 322 Kbps
    Width : 1 920 pixels
    Height : 816 pixels
    Display aspect ratio : 2.35:1
    Frame rate : 23.976 fps
    Color space : YUV
    Chroma subsampling : 4:2:0
    Bit depth : 8 bits
    Scan type : Progressive
    Bits/(Pixel*Frame) : 0.142
    Stream size : 3.94 GiB (90%)
    Writing library : x264 core 130 r2273 b3065e6
    Encoding settings : cabac=1/ref=5/deblock=1:-3:-3/analyse=0x3:0x133/me=umh/subme=11/psy=1/psy_rd=1.00:0.15/mixed_ref=1/me_range=48/chroma_me=1/trellis=2/8x8dct=1/cqm=0/deadzone=21, 11/fast_pskip=0/chroma_qp_offset=-4/threads=6/lookahead_threads=1/sliced_threads=0/nr=0/decimate=1/interlaced=0/bluray_compat=0/constrained_intra=0/bframes=8/b_pyramid=2/b_adapt=2/b_bias=0/direct=2/weightb=1/open_gop=0/weightp=2/keyint=250/keyint_min=23/scenecut=40/intra_refresh=0/rc=2pass/mbtree=0/bitrate=5322/ratetol=1.0/qcomp=0.80/qpmin=0/qpmax=69/qpstep=4/cplxblur=20.0/qblur=0.5/ip_ratio=1.40/pb_ratio=1.30/aq=2:1.00
    Language : English
    Default : Yes
    Forced : No
    Color primaries : Generic film
    Matrix coefficients : YCgCo
    Audio
    ID : 2
    Format : AC-3
    Format/Info : Audio Coding 3
    Mode extension : CM (complete main)
    Codec ID : A_AC3
    Duration : 1h 48mn
    Bit rate mode : Constant
    Bit rate : 448 Kbps
    Channel(s) : 6 channels
    Channel positions : Front: L C R, Side: L R, LFE
    Sampling rate : 48.0 KHz
    Bit depth : 16 bits
    Compression mode : Lossy
    Stream size : 347 MiB (8%)
    Title : Дубляж
    Language : Russian
    Default : Yes
    Forced : No
    Menu
    00:00:00.000 : en:Chapter 1
    00:05:00.000 : en:Chapter 2
    00:10:00.000 : en:Chapter 3
    00:15:00.000 : en:Chapter 4
    00:20:00.000 : en:Chapter 5
    00:25:00.000 : en:Chapter 6
    00:30:00.000 : en:Chapter 7
    00:35:00.000 : en:Chapter 8
    00:40:00.000 : en:Chapter 9
    00:45:00.000 : en:Chapter 10
    00:50:00.000 : en:Chapter 11
    00:55:00.000 : en:Chapter 12
    01:00:00.000 : en:Chapter 13
    01:05:00.000 : en:Chapter 14
    01:10:00.000 : en:Chapter 15
    01:15:00.000 : en:Chapter 16
    01:20:00.000 : en:Chapter 17
    01:25:00.000 : en:Chapter 18
    01:30:00.000 : en:Chapter 19
    01:35:00.000 : en:Chapter 20
    01:40:00.000 : en:Chapter 21
    01:45:00.000 : en:Chapter 22


    Скриншоты для ознакомления




    Онлайн видео Особь



    Особь/Species (1995) BDRip [H.264/1080p-LQ]
    загрузка...
    Рейтинг →
     (голосов: 1, оценка 4/5, голосовать можно 1 раз )

    Другие торренты по теме:

  • Особь / Species (1995-2007) BDRip [H.264 / 1080p] [Квадрология]
  • Особь: Пробуждение / Species: The Awakening (2007) WEB-DLRip [H.264] скачать через торрент бесплатно
  • Особь 2 / Species II (1998) WEB-DLRip [H.264] скачать через торрент бесплатно
  • Особь 3 / Species III (2004) WEB-DLRip [H.264] скачать через торрент бесплатно
  • Особь 2 / Species II (1998) BDRip [H.264 / 1080p-LQ]
  • Особь 3 / Species III (2004) BDRip [H.264 / 1080p-LQ]
  • Особь: Пробуждение / Species: The Awakening (2007) BDRip [H.264 / 1080p-LQ]
  • Особь 2 / Species II (1998) BDRip [H.264 / 720р-LQ]


    • Комментарии (0):

      Информация

      Информация

        Посетители, находящиеся в группе Гости, не могут оставлять комментарии в данной новости.

        ↓ Меню




        ↓ Опрос

        Вы добавили сайт в закладки?
        Да
        Нет


        Top 10 за месяц (Фильмы)