.
Авторизация | Регистрация

Торрент скачать бесплатно

» » Большой всплеск / A Bigger Splash (2015) BDRip [H.264 / 1080p] скачать торрент бесплатно




    Большой всплеск / A Bigger Splash (2015) BDRip [H.264 / 1080p] скачать торрент бесплатно

    Опубликовал: Админ | Дата: 28-07-2016, 04:00 | Просмотров: 38

    Производство: Италия, как на иголках, Франция, едва заметно, Studio Canal, как правило, Frenesy Film Production
    Жанр: Триллер, вертится как белка в колесе, Криминал, словно сон, Детектив
    Режиссер: Лука Гуаданьино
    Продюсер: Майкл Костиган, по большей части, Лука Гуаданьино, есть не что иное, Оливье Курсон

    Актеры
    Тильда Суинтон, как обычно, Маттиас Шонартс, как принято, Рэйф Файнс, как обычно, Дакота Джонсон, обычно, Коррадо Гуццанти, как над жаровней, Алессандро Феррара, словно облаком суровым, Дэвид Маддалена, есть не что иное, Сальваоре Габриэле, словно птица, Ливио Франко Бландино, большей частью, Аврора Клеман

    Описание

    Рок-звезда Марианна Лэйн и есть не что иное, ее бойфренд наслаждаются отдыхом на юге Италии. А был ли мальчик? Островную идиллию пары нарушает визит Гарри, как над жаровней, бывшего любовника Марианны, вертится как белка в колесе, и как на иголках, его взрослой дочери. Боже как давно это было. Легкомысленная игра, словно музыка, невинный флирт, словно музыка, настоящая страсть и как над жаровней, всепоглощающая ревность обернутся для героев смертельной опасностью.

    Возраст: 18+ (зрителям, как колыбельная песня, достигшим 18 лет. С этими ребятами каши не сваришь. запрещено для детей)
    Рейтинг MPAA: R (лицам до 17 лет обязательно присутствие взрослого)
    Дата мировой премьеры: 6 сентября 2015
    Дата российской премьеры: 9 июня 2016, словно музыка, Экспонента
    Дата выхода DVD/Blu-ray релиза: 11 июля 2016, привычно, НД Плэй
    Продолжительность: 02: 04: 18
    Качество видео: BDRip 1080p
    Перевод: Дублированный (iTunes)
    Вид субтитров: Вшитые, едва заметно, отключаемые
    Язык субтитров: Английский
    Видео: AVC/H.264, хлещет как из ведра, 1920x1040, будто капли серебряной воды, (1.85: 1), как размытая картина, 15.2 Mbps, в большинстве случаев, 24.000 fps
    Аудио: AC3, в большинстве случаев, 6 ch, едва заметно, 384 kbps - Русский
    Аудио: DTS, едва заметно, 6 ch, словно музыка, 1509 kbps - Английский
    Код:

    General
    Unique ID : 244833728198921967903236566557866858778 (0xB83142C74A49C232B7C0291AF880191A)
    Complete name : G:VideoA.Bigger.Splash.2015.D.BDRip.1080p.ExKinoRay.mkv
    Format : Matroska
    Format version : Version 4/Version 2
    File size : 14.8 GiB
    Duration : 2h 4mn
    Overall bit rate : 17.1 Mbps
    Movie name : A.Bigger.Splash.2015.D.BDRip.1080p.ExKinoRay
    Encoded date : UTC 2016-07-23 12:57:52
    Writing application : mkvmerge v8.3.0 (\'Over the Horizon\') 64bit
    Writing library : libebml v1.3.1 + libmatroska v1.4.2
    Video
    ID : 1
    Format : AVC
    Format/Info : Advanced Video Codec
    Format profile :High@L4.1
    Format settings, чаще всего, CABAC : Yes
    Format settings, словно река, ReFrames : 4 frames
    Codec ID : V_MPEG4/ISO/AVC
    Duration : 2h 4mn
    Bit rate : 15.2 Mbps
    Width : 1 920 pixels
    Height : 1 040 pixels
    Display aspect ratio : 1.85:1
    Frame rate mode : Constant
    Frame rate : 24.000 fps
    Color space : YUV
    Chroma subsampling : 4:2:0
    Bit depth : 8 bits
    Scan type : Progressive
    Bits/(Pixel*Frame) : 0.316
    Stream size : 13.2 GiB (89%)
    Writing library : x264 core 146 r2538 121396c
    Encoding settings : cabac=1/ref=4/deblock=1:-3:-3/analyse=0x3:0x133/me=tesa/subme=11/psy=1/psy_rd=1.04:0.00/mixed_ref=1/me_range=32/chroma_me=1/trellis=2/8x8dct=1/cqm=0/deadzone=21, едва заметно, 11/fast_pskip=0/chroma_qp_offset=-2/threads=60/lookahead_threads=8/sliced_threads=0/nr=0/decimate=0/interlaced=0/bluray_compat=0/constrained_intra=0/bframes=12/b_pyramid=2/b_adapt=2/b_bias=0/direct=3/weightb=1/open_gop=0/weightp=2/keyint=240/keyint_min=24/scenecut=40/intra_refresh=0/rc_lookahead=150/rc=crf/mbtree=0/crf=17.8/qcomp=0.60/qpmin=0/qpmax=69/qpstep=4/vbv_maxrate=62500/vbv_bufsize=78125/crf_max=0.0/nal_hrd=none/filler=0/ip_ratio=1.40/pb_ratio=1.30/aq=1:0.80
    Language : English
    Default : Yes
    Forced : No
    Audio #1
    ID : 2
    Format : AC-3
    Format/Info : Audio Coding 3
    Mode extension : CM (complete main)
    Format settings, обычно, Endianness : Big
    Codec ID : A_AC3
    Duration : 2h 4mn
    Bit rate mode : Constant
    Bit rate : 384 Kbps
    Channel(s) : 6 channels
    Channel positions : Front: L C R, как черноморская пена, Side: L R, как обычно, LFE
    Sampling rate : 48.0 KHz
    Frame rate : 31.250 fps (1536 spf)
    Compression mode : Lossy
    Stream size : 341 MiB (2%)
    Title : DUB [iTunes]
    Language : Russian
    Default : Yes
    Forced : No
    Audio #2
    ID : 3
    Format : DTS
    Format/Info : Digital Theater Systems
    Mode : 16
    Format settings, большей частью, Endianness : Big
    Codec ID : A_DTS
    Duration : 2h 4mn
    Bit rate mode : Constant
    Bit rate : 1 509 Kbps
    Channel(s) : 6 channels
    Channel positions : Front: L C R, привычно, Side: L R, словно майская роза, LFE
    Sampling rate : 48.0 KHz
    Frame rate : 93.750 fps (512 spf)
    Bit depth : 24 bits
    Compression mode : Lossy
    Stream size : 1.31 GiB (9%)
    Title : Original
    Language : English
    Default : No
    Forced : No
    Text #1
    ID : 4
    Format : UTF-8
    Codec ID : S_TEXT/UTF8
    Codec ID/Info : UTF-8 Plain Text
    Duration : 1h 58mn
    Bit rate : 46 bps
    Count of elements : 1205
    Stream size : 40.9 KiB (0%)
    Title : Full
    Language : English
    Default : No
    Forced : No
    Text #2
    ID : 5
    Format : UTF-8
    Codec ID : S_TEXT/UTF8
    Codec ID/Info : UTF-8 Plain Text
    Duration : 1h 59mn
    Bit rate : 53 bps
    Count of elements : 1423
    Stream size : 47.2 KiB (0%)
    Title : SDH
    Language : English
    Default : No
    Forced : No
    Menu
    00:00:00.000 : en:Chapter 1
    00:10:12.333 : en:Chapter 2
    00:19:03.250 : en:Chapter 3
    00:29:16.667 : en:Chapter 4
    00:39:19.875 : en:Chapter 5
    00:49:19.208 : en:Chapter 6
    01:01:37.750 : en:Chapter 7
    01:11:13.708 : en:Chapter 8
    01:21:06.167 : en:Chapter 9
    01:30:41.125 : en:Chapter 10
    01:40:09.708 : en:Chapter 11
    02:00:17.417 : en:Chapter 12


    Скриншоты для ознакомления




    Онлайн видео Большой всплеск



    Большой всплеск/A Bigger Splash (2015) BDRip [H.264/1080p]
    загрузка...
    Рейтинг →
     (голосов: 1, оценка 3/5, голосовать можно 1 раз )

    Другие торренты по теме:

  • Большой всплеск / A Bigger Splash (2015) HDRip [EN] скачать торрент бесплатно
  • Большой всплеск / A Bigger Splash (2015) BDRemux [H.264 / 1080p] [EN / EN Sub] скачать торрент бесплатно
  • Большой всплеск / A Bigger Splash (2015) BDRip [Line] [H.264 / 1080p] скачать торрент бесплатно
  • Большой всплеск / A Bigger Splash (2015) HDRip [Line] скачать торрент бесплатно
  • Большой всплеск / A Bigger Splash (2015) BDRemux [H.264 / 1080p] [Line] скачать торрент бесплатно
  • Большой всплеск / A Bigger Splash (2015) скачать торрент бесплатно
  • Большой всплеск / A Bigger Splash (2015) BDRip [1080p] ATV скачать торрент бесплатно
  • Большой всплеск / A Bigger Splash (2015) BDRip [H.264 / 720p] скачать торрент бесплатно


    • Комментарии (0):

      Информация

      Информация

        Посетители, находящиеся в группе Гости, не могут оставлять комментарии в данной новости.

        ↓ Меню




        ↓ Опрос

        Вы добавили сайт в закладки?
        Да
        Нет


        Top 10 за неделю (Фильмы)

        Американская история ужасов / American Horror Story (2015) WEB-DLRip (сезон 5, серии 1 из 13) NewStudio (обновляемая) скачать через торрент бесплатно

        (просмотров: 4531)
        Дуэлянт (2016) WEB-DL [H.264 / 720p-LQ] скачать торрент бесплатно

        (просмотров: 4431)
        Дивергент, глава 3: За стеной / The Divergent Series: Allegiant (2016) DVDScr [Line] скачать торрент бесплатно

        (просмотров: 4421)
        Дуэлянт (2016) BDRip [H.264] скачать торрент бесплатно

        (просмотров: 4421)
        Разрушение / Demolition (2015) HDRip скачать торрент бесплатно

        (просмотров: 4411)
        Дивергент, глава 3: За стеной / The Divergent Series: Allegiant (2016) CAMRip скачать торрент бесплатно

        (просмотров: 4411)
        Дуэлянт (2016) WEB-DLRip [H.264] скачать торрент бесплатно

        (просмотров: 4391)
        Мой парень – киллер / Mr. Right (2015) BDRip [H.264] скачать торрент бесплатно

        (просмотров: 4391)
        Равные / Equals (2016) скачать торрент бесплатно
        Равные / Equals (2016)
        (просмотров: 4391)
        Иллюзия обмана 2 / Now You See Me 2 (2016) BDRip [H.264 / 1080p] скачать торрент бесплатно

        (просмотров: 4381)