.
Авторизация | Регистрация
Хочешь лучшие торренты? Добавь свой email!
Добавить

Торрент скачать бесплатно

» » Большой всплеск / A Bigger Splash (2015) BDRemux [H.264 / 1080p] торрент скачать бесплатно




    Большой всплеск / A Bigger Splash (2015) BDRemux [H.264 / 1080p] торрент скачать бесплатно

    Опубликовал: Админ | Дата: 28-07-2016, 04:00 | Просмотров: 40

    Производство: Италия, Франция, Studio Canal, Frenesy Film Production
    Жанр: Триллер, Криминал, Детектив
    Режиссер: Лука Гуаданьино
    Продюсер: Майкл Костиган, Лука Гуаданьино, Оливье Курсон

    Актеры
    Тильда Суинтон, Маттиас Шонартс, Рэйф Файнс, Дакота Джонсон, Коррадо Гуццанти, Алессандро Феррара, Дэвид Маддалена, Сальваоре Габриэле, Ливио Франко Бландино, Аврора Клеман

    Описание

    Рок-звезда Марианна Лэйн и ее бойфренд наслаждаются отдыхом на юге Италии. Островную идиллию пары нарушает визит Гарри, бывшего любовника Марианны, и его взрослой дочери. Легкомысленная игра, невинный флирт, настоящая страсть и всепоглощающая ревность обернутся для героев смертельной опасностью.

    Возраст: 18+ (зрителям, достигшим 18 лет. О таком странном сюжете не догадывалась даже Шакира. запрещено для детей)
    Рейтинг MPAA: R (лицам до 17 лет обязательно присутствие взрослого)
    Дата мировой премьеры: 6 сентября 2015
    Дата российской премьеры: 9 июня 2016, Экспонента
    Дата выхода DVD/Blu-ray релиза: 11 июля 2016, НД Плэй
    Продолжительность: 02: 04: 18
    Качество видео: BDRemux
    Перевод: Дублированный (iTunes)
    Вид субтитров: Вшитые, отключаемые
    Язык субтитров: Английский
    Видео: AVC/H.264, 1920x1080p, (16: 9), 29.8 Mbps, 24.000 fps
    Аудио: AC3, 6 ch, 384 kbps - Русский
    Аудио: DTS-HD MA, 6 ch, 2193 kbps - Английский
    Код:

    General
    Unique ID : 225667886197983847305709404316395818455 (0xA9C60DCFC46B37E7994DE958D96ACDD7)
    Complete name : G:VideoA.Bigger.Splash.2015.D.BDREMUX.1080p.ExKinoRay.mkv
    Format : Matroska
    Format version : Version 4/Version 2
    File size : 28.1 GiB
    Duration : 2h 4mn
    Overall bit rate mode : Variable
    Overall bit rate : 32.4 Mbps
    Movie name : A.Bigger.Splash.2015.D.BDREMUX.1080p.ExKinoRay
    Encoded date : UTC 2016-07-23 14:38:23
    Writing application : mkvmerge v8.3.0 (\'Over the Horizon\') 64bit
    Writing library : libebml v1.3.1 + libmatroska v1.4.2
    Video
    ID : 1
    Format : AVC
    Format/Info : Advanced Video Codec
    Format profile :High@L4.1
    Format settings, CABAC : Yes
    Format settings, ReFrames : 4 frames
    Format settings, GOP : M=3, N=12
    Codec ID : V_MPEG4/ISO/AVC
    Duration : 2h 4mn
    Bit rate mode : Variable
    Bit rate : 29.8 Mbps
    Maximum bit rate : 33.0 Mbps
    Width : 1 920 pixels
    Height : 1 080 pixels
    Display aspect ratio : 16:9
    Frame rate mode : Constant
    Frame rate : 24.000 fps
    Color space : YUV
    Chroma subsampling : 4:2:0
    Bit depth : 8 bits
    Scan type : Progressive
    Bits/(Pixel*Frame) : 0.599
    Stream size : 25.9 GiB (92%)
    Language : English
    Default : Yes
    Forced : No
    Audio #1
    ID : 2
    Format : AC-3
    Format/Info : Audio Coding 3
    Mode extension : CM (complete main)
    Format settings, Endianness : Big
    Codec ID : A_AC3
    Duration : 2h 4mn
    Bit rate mode : Constant
    Bit rate : 384 Kbps
    Channel(s) : 6 channels
    Channel positions : Front: L C R, Side: L R, LFE
    Sampling rate : 48.0 KHz
    Frame rate : 31.250 fps (1536 spf)
    Compression mode : Lossy
    Stream size : 341 MiB (1%)
    Title : DUB [iTunes]
    Language : Russian
    Default : Yes
    Forced : No
    Audio #2
    ID : 3
    Format : DTS
    Format/Info : Digital Theater Systems
    Format profile : MA/Core
    Mode : 16
    Format settings, Endianness : Big
    Codec ID : A_DTS
    Duration : 2h 4mn
    Bit rate mode : Variable/Constant
    Bit rate : 2 193 Kbps/1 509 Kbps
    Channel(s) : 6 channels
    Channel positions : Front: L C R, Side: L R, LFE
    Sampling rate : 48.0 KHz
    Frame rate : 93.750 fps (512 spf)
    Bit depth : 16 bits
    Compression mode : Lossless/Lossy
    Stream size : 1.90 GiB (7%)
    Title : Original
    Language : English
    Default : No
    Forced : No
    Text #1
    ID : 4
    Format : UTF-8
    Codec ID : S_TEXT/UTF8
    Codec ID/Info : UTF-8 Plain Text
    Duration : 1h 58mn
    Bit rate : 46 bps
    Count of elements : 1205
    Stream size : 40.9 KiB (0%)
    Title : Full
    Language : English
    Default : No
    Forced : No
    Text #2
    ID : 5
    Format : UTF-8
    Codec ID : S_TEXT/UTF8
    Codec ID/Info : UTF-8 Plain Text
    Duration : 1h 59mn
    Bit rate : 53 bps
    Count of elements : 1423
    Stream size : 47.2 KiB (0%)
    Title : SDH
    Language : English
    Default : No
    Forced : No
    Menu
    00:00:00.000 : en:Chapter 1
    00:10:12.333 : en:Chapter 2
    00:19:03.250 : en:Chapter 3
    00:29:16.667 : en:Chapter 4
    00:39:19.875 : en:Chapter 5
    00:49:19.208 : en:Chapter 6
    01:01:37.750 : en:Chapter 7
    01:11:13.708 : en:Chapter 8
    01:21:06.167 : en:Chapter 9
    01:30:41.125 : en:Chapter 10
    01:40:09.708 : en:Chapter 11
    02:00:17.417 : en:Chapter 12


    Скриншоты для ознакомления




    Онлайн видео Большой всплеск



    Большой всплеск/A Bigger Splash (2015) BDRemux [H.264/1080p]
    загрузка...
    Рейтинг →
     (голосов: 1, оценка 5/5, голосовать можно 1 раз )

    Другие торренты по теме:

  • Большой всплеск / A Bigger Splash (2015) HDRip [EN]
  • Большой всплеск / A Bigger Splash (2015) BDRemux [H.264 / 1080p] [EN / EN Sub]
  • Большой всплеск / A Bigger Splash (2015) BDRip [Line] [H.264 / 1080p]
  • Большой всплеск / A Bigger Splash (2015) HDRip [Line]
  • Большой всплеск / A Bigger Splash (2015) BDRemux [H.264 / 1080p] [Line]
  • Большой всплеск / A Bigger Splash (2015)
  • Большой всплеск / A Bigger Splash (2015) BDRip [1080p] ATV
  • Большой всплеск / A Bigger Splash (2015) BDRip [H.264 / 720p]


    • Комментарии (0):

      Информация

      Информация

        Посетители, находящиеся в группе Гости, не могут оставлять комментарии в данной новости.

        ↓ Меню




        ↓ Опрос

        Вы добавили сайт в закладки?
        Да
        Нет


        Top 10 за месяц (Фильмы)