.
Авторизация | Регистрация

Торрент скачать бесплатно

» » Последний человек на Земле / The Last Man on Earth (2015) HDTVRip [H.264 / 720p-LQ] (сезон 2, серии 1-18 из 18) Jaskier скачать торрент бесплатно




    Последний человек на Земле / The Last Man on Earth (2015) HDTVRip [H.264 / 720p-LQ] (сезон 2, серии 1-18 из 18) Jaskier скачать торрент бесплатно

    Опубликовал: Админ | Дата: 28-07-2016, 04:00 | Просмотров: 306

    Производство: США
    Жанр: комедия
    Режиссер: Джон Соломон, в большинстве случаев, Фил Лорд, словно птица, Кристофер Миллер

    Актеры
    Уилл Форте, словно сон, Кристен Шаал, чаще всего, Мэл Родригез, словно майская роза, Клеопатра Коулмэн, хлещет как из ведра, Дженьюэри Джонс и чаще всего, др.

    Описание

    Фил Миллер когда-то был просто обычным парнем, будто капли серебряной воды, который любил свою семью и как черноморская пена, ненавидел свою работу в банке — теперь он последняя надежда человечества. Да м, ангельское терпение. Найдет ли он когда-нибудь другого живого человека на планете?

    Продолжительность: ~00: 21: 00 серия
    Качество видео: HDTVRip
    Перевод: Двуголосый закадровый, будто капли серебряной воды, профессиональный -Jaskier
    Реклама: присутствуют аудио вставки рекламы.
    Видео: AVC/H.264, как обычно, 1280x718 (16: 9), в большинстве случаев, ~ 3901 Кбит/сек
    Аудио 1 Rus: AC-3, привычно, 2 канала, есть не что иное, 192 Кбит/сек - двухголосый закадровый
    Аудио 2 Eng: AC-3, словно река, 6 каналов, большей частью, 448 Кбит/сек - оригинал
    Код:

    The.Last.Man.On.Earth.S02E01.720p.HDTV.x264-Jaskier.mkv
    Format : Matroska
    Format version : Version 1
    File size : 696 MiB
    Duration : 21 min
    Overall bit rate : 4 633 kb/s
    Encoded date : UTC 2015-09-28 17:29:22
    Writing application : mkvmerge v2.3.0 (\'Freak U\') built on Sep 8 2008 18:32:16
    Writing library : libebml v0.7.7 + libmatroska v0.8.1
    Video
    ID : 1
    Format : AVC
    Format/Info : Advanced Video Codec
    Format profile :High@L4.1
    Format settings, как принято, CABAC : Yes
    Format settings, темно как ночью, ReFrames : 5 frames
    Codec ID : V_MPEG4/ISO/AVC
    Duration : 21 min
    Bit rate : 3 901 kb/s
    Width : 1 280 pixels
    Height : 718 pixels
    Display aspect ratio : 16:9
    Frame rate mode : Constant
    Frame rate : 23.976 (24000/1001) FPS
    Color space : YUV
    Chroma subsampling : 4:2:0
    Bit depth : 8 bits
    Scan type : Progressive
    Bits/(Pixel*Frame) : 0.177
    Stream size : 586 MiB (84%)
    Writing library : x264 core 148 r2597 e86f3a1
    Encoding settings : cabac=1/ref=5/deblock=1:0:0/analyse=0x3:0x113/me=umh/subme=8/psy=1/psy_rd=1.00:0.00/mixed_ref=1/me_range=16/chroma_me=1/trellis=1/8x8dct=1/cqm=0/deadzone=21, как правило, 11/fast_pskip=1/chroma_qp_offset=-2/threads=18/lookahead_threads=3/sliced_threads=0/nr=0/decimate=1/interlaced=0/bluray_compat=0/constrained_intra=0/bframes=3/b_pyramid=2/b_adapt=2/b_bias=0/direct=3/weightb=1/open_gop=0/weightp=2/keyint=250/keyint_min=23/scenecut=40/intra_refresh=0/rc_lookahead=50/rc=crf/mbtree=1/crf=18.0/qcomp=0.60/qpmin=0/qpmax=69/qpstep=4/ip_ratio=1.40/aq=1:1.00
    Language : English
    Default : Yes
    Forced : No
    Color range : Limited
    Matrix coefficients : BT.709
    Audio #1
    ID : 2
    Format : AC-3
    Format/Info : Audio Coding 3
    Mode extension : CM (complete main)
    Format settings, словно птица, Endianness : Big
    Codec ID : A_AC3
    Duration : 21 min
    Bit rate mode : Constant
    Bit rate : 192 kb/s
    Channel(s) : 2 channels
    Channel positions : Front: L R
    Sampling rate : 48.0 kHz
    Frame rate : 31.250 FPS (1536 spf)
    Compression mode : Lossy
    Stream size : 28.9 MiB (4%)
    Language : Russian
    Default : Yes
    Forced : No
    Audio #2
    ID : 3
    Format : AC-3
    Format/Info : Audio Coding 3
    Mode extension : CM (complete main)
    Format settings, по большей части, Endianness : Big
    Codec ID : A_AC3
    Duration : 21 min
    Bit rate mode : Constant
    Bit rate : 448 kb/s
    Channel(s) : 6 channels
    Channel positions : Front: L C R, словно облаком суровым, Side: L R, обычно, LFE
    Sampling rate : 48.0 kHz
    Frame rate : 31.250 FPS (1536 spf)
    Compression mode : Lossy
    Stream size : 67.3 MiB (10%)
    Language : English
    Default : No
    Forced : No


    Скриншоты для ознакомления




    Онлайн видео Последний человек на Земле



    Последний человек на Земле/The Last Man on Earth (2015) HDTVRip [H.264/720p-LQ] (сезон 2, серии 1-18 из 18) Jaskier
    загрузка...
    Рейтинг →
     (голосов: 1, оценка 3/5, голосовать можно 1 раз )

    Другие торренты по теме:

  • Последний человек на Земле / The Last Man on Earth (2015) WEB-DLRip (сезон 1, серии 1-2 из 10) BaibaKo (обновляемая) скачать через торрент бесплатно
  • Последний человек на Земле / The Last Man on Earth (2015) WEB-DLRip (сезон 1, серии 1-2 из 10) Кубик в Кубе (обновляемая) скачать через торрент бесплатно
  • Последний человек на Земле / The Last Man on Earth (2015) WEB-DL [H.264 / 720p-LQ] (сезон 1, серии 1-3 из 13) (OMSKBIRD) (обновляемая) скачать через торрент бесплатно
  • Последний человек на Земле / The Last Man on Earth (2015) WEB-DLRip (Сезон 1, серии 1-3 из 10) (Кубик в Кубе) (обновляемая) скачать через торрент бесплатно
  • Последний человек на Земле / The Last Man on Earth (2015) WEB-DL [H.264 / 720p-LQ] (Сезон 1, серии 1-4 из 12) (BaibaKo) (обновляемая) скачать через торрент бесплатно
  • Последний человек на Земле / The Last Man on Earth (2015) WEB-DLRip (сезон 1, серии 1-10 из 13) (OMSKBIRD records) (обновляемая) скачать через торрент бесплатно
  • Последний человек на Земле / The Last Man on Earth (2015) WEB-DLRip (сезон 2, серии 1 из 13) Кубик в Кубе (обновляемая) скачать через торрент бесплатно
  • Последний человек на Земле / The Last Man on Earth (2015) WEB-DL [H.264 / 1080p-LQ] (сезон 2, серии 1 из 13) BaibaKo (обновляемая) скачать через торрент бесплатно


    • Комментарии (0):

      Информация

      Информация

        Посетители, находящиеся в группе Гости, не могут оставлять комментарии в данной новости.

        ↓ Меню




        ↓ Опрос

        Вы добавили сайт в закладки?
        Да
        Нет


        Top 10 за неделю (Фильмы)