.
Авторизация | Регистрация
Хочешь лучшие торренты? Добавь свой email!
Добавить

Торрент скачать бесплатно

» » Манхэттенская ночь / Manhattan Night / Manhattan Nocturne (2016) BDRip [H.264 / 1080p] торрент скачать бесплатно




    Манхэттенская ночь / Manhattan Night / Manhattan Nocturne (2016) BDRip [H.264 / 1080p] торрент скачать бесплатно

    Опубликовал: Админ | Дата: 27-07-2016, 04:01 | Просмотров: 315

    Производство: США/DeCubellis Films, Untravelled Worlds, Fable House, Nocturne Pictures, Big Indie Pictures
    Жанр: Триллер, Драма, Криминал, Детектив
    Режиссер: Брайан ДеКьюбелис

    Актеры
    Ивонн Страховски, Эдриан Броуди, Дженнифер Билз, Кэмпбелл Скотт, Линда Лавин, Стивен Беркофф, Кевин Брезнахан, Уилл Бейнбринк, Фрэнк Дил, Наим Узиманн, ...

    Описание

    Когда соблазнительная незнакомка предлагает репортеру Портеру Рену провести расследование обстоятельств смерти ее мужа, он погружается в опасный мир сексуальной одержимости и заговоров, которые угрожают его браку, работе и жизни.

    Рейтинг MPAA: R (лицам до 17 лет обязательно присутствие взрослого)
    Премьера (мир): 20 мая 2016
    Продолжительность: 01: 53: 56
    Качество видео: BDRip
    Перевод: Любительский многоголосый (Parovoz Production)
    Субтитры: Английские – Full и SDH (Вшитые, отключаемые)
    Видео: AVC, 1920x808 (2.35: 1), 23.976 fps, 9 478 Kbps (0.255 bit/pixel)
    Аудио: AC-3, 48.0 KHz, 2 ch, 192 Kbps, CBR (Russian)
    Аудио: DTS, 48.0 KHz, 6 ch, 1 510 Kbps, CBR (English)
    Код:

    Формат : Matroska
    Версия формата : Version 4/Version 2
    Размер файла : 8, 89 Гбайт
    Продолжительность : 1 ч. 53 м.
    Общий поток : 11, 2 Мбит/сек
    Название фильма : Manhattan.Night.2016.BDRip.1080p.selezen
    Дата кодирования : UTC 2016-07-24 06:20:43
    Программа кодирования : mkvmerge v8.3.0 (\'Over the Horizon\') 64bit
    Библиотека кодирования : libebml v1.3.1 + libmatroska v1.4.2
    DURATION : 01:52:46.457000000
    NUMBER_OF_FRAMES : 1522
    NUMBER_OF_BYTES : 55418
    _STATISTICS_WRITING_APP : mkvmerge v8.3.0 (\'Over the Horizon\') 64bit
    _STATISTICS_WRITING_DATE_UTC : 2016-07-24 06:20:43
    _STATISTICS_TAGS : BPS DURATION NUMBER_OF_FRAMES NUMBER_OF_BYTES
    Видео
    Идентификатор : 1
    Формат : AVC
    Формат/Информация : Advanced Video Codec
    Профиль формата :High@L4.1
    Параметр CABAC формата : Да
    Параметр ReFrames формата : 5 кадров
    Идентификатор кодека : V_MPEG4/ISO/AVC
    Продолжительность : 1 ч. 53 м.
    Битрейт : 9478 Кбит/сек
    Ширина : 1920 пикселей
    Высота : 808 пикселей
    Соотношение сторон : 2, 40:1
    Режим частоты кадров : Постоянный
    Частота кадров : 23, 976 кадра/сек
    Цветовое пространство : YUV
    Субдискретизация насыщенности : 4:2:0
    Битовая глубина : 8 бит
    Тип развёртки : Прогрессивная
    Бит/(Пиксели*Кадры) : 0.255
    Размер потока : 7, 36 Гбайт (83%)
    Библиотека кодирования : x264 core 148 r2692 64f4e24
    Настройки программы : cabac=1/ref=5/deblock=1:0:0/analyse=0x3:0x133/me=umh/subme=7/psy=1/psy_rd=1.00:0.00/mixed_ref=1/me_range=16/chroma_me=1/trellis=1/8x8dct=1/cqm=0/deadzone=21, 11/fast_pskip=0/chroma_qp_offset=-2/threads=18/lookahead_threads=3/sliced_threads=0/nr=0/decimate=1/interlaced=0/bluray_compat=0/constrained_intra=0/bframes=3/b_pyramid=2/b_adapt=1/b_bias=0/direct=1/weightb=1/open_gop=0/weightp=2/keyint=250/keyint_min=23/scenecut=40/intra_refresh=0/rc_lookahead=40/rc=2pass/mbtree=1/bitrate=9478/ratetol=1.0/qcomp=0.60/qpmin=0/qpmax=69/qpstep=4/cplxblur=20.0/qblur=0.5/ip_ratio=1.40/aq=1:1.00
    Язык : English
    Default : Да
    Forced : Нет
    DURATION : 01:53:56.800000000
    NUMBER_OF_FRAMES : 163919
    NUMBER_OF_BYTES : 8089210434
    _STATISTICS_WRITING_APP : mkvmerge v8.3.0 (\'Over the Horizon\') 64bit
    _STATISTICS_WRITING_DATE_UTC : 2016-07-24 06:20:43
    _STATISTICS_TAGS : BPS DURATION NUMBER_OF_FRAMES NUMBER_OF_BYTES
    Аудио #1
    Идентификатор : 2
    Формат : AC-3
    Формат/Информация : Audio Coding 3
    Расширение режима : CM (complete main)
    Параметр Endianness формата : Big
    Идентификатор кодека : A_AC3
    Продолжительность : 1 ч. 53 м.
    Вид битрейта : Постоянный
    Битрейт : 192 Кбит/сек
    Каналы : 2 канала
    Расположение каналов : Front: L R
    Частота : 48, 0 КГц
    Битовая глубина : 16 бит
    Метод сжатия : С потерями
    Задержка видео : 2 мс.
    Размер потока : 156 Мбайт (2%)
    Заголовок : MVO [Parovoz Production]
    Язык : Russian
    Default : Да
    Forced : Нет
    Аудио #2
    Идентификатор : 3
    Формат : DTS
    Формат/Информация : Digital Theater Systems
    Режим : 16
    Параметр Endianness формата : Big
    Идентификатор кодека : A_DTS
    Продолжительность : 1 ч. 53 м.
    Вид битрейта : Постоянный
    Битрейт : 1509 Кбит/сек
    Каналы : 6 каналов
    Расположение каналов : Front: L C R, Side: L R, LFE
    Частота : 48, 0 КГц
    Битовая глубина : 24 бит
    Метод сжатия : С потерями
    Размер потока : 1, 20 Гбайт (14%)
    Заголовок : Original
    Язык : English
    Default : Нет
    Forced : Нет
    Текст #1
    Идентификатор : 4
    Формат : UTF-8
    Идентификатор кодека : S_TEXT/UTF8
    Идентификатор кодека/Информация : UTF-8 Plain Text
    Заголовок : Full
    Язык : English
    Default : Нет
    Forced : Нет
    Текст #2
    Идентификатор : 5
    Формат : UTF-8
    Идентификатор кодека : S_TEXT/UTF8
    Идентификатор кодека/Информация : UTF-8 Plain Text
    Заголовок : SDH
    Язык : English
    Default : Нет
    Forced : Нет
    Меню
    00:00:00.000 : en:00:00:00.000
    00:09:27.150 : en:00:09:27.150
    00:14:56.562 : en:00:14:56.562
    00:25:48.714 : en:00:25:48.714
    00:32:18.770 : en:00:32:18.770
    00:39:42.672 : en:00:39:42.672
    00:48:02.838 : en:00:48:02.838
    00:59:05.208 : en:00:59:05.208
    01:06:32.030 : en:01:06:32.030
    01:11:48.471 : en:01:11:48.471
    01:18:48.849 : en:01:18:48.849
    01:25:02.389 : en:01:25:02.389
    01:29:03.004 : en:01:29:03.004
    01:31:47.836 : en:01:31:47.836
    01:40:28.022 : en:01:40:28.022
    01:46:12.408 : en:01:46:12.408


    Скриншоты для ознакомления




    Онлайн видео Манхэттенская ночь



    Манхэттенская ночь/Manhattan Night/Manhattan Nocturne (2016) BDRip [H.264/1080p]
    загрузка...
    Рейтинг →
     (голосов: 1, оценка 4/5, голосовать можно 1 раз )

    Другие торренты по теме:

  • Манхэттенская ночь / Manhattan Night / Manhattan Nocturne (2016) WEB-DL [H.264 / 720p-LQ] [EN / EN Sub]
  • Манхэттенская ночь / Manhattan Night / Manhattan Nocturne (2016) WEB-DL [H.264 / 1080p-LQ]
  • Манхэттенская ночь / Manhattan Night / Manhattan Nocturne (2016) WEB-DLRip
  • Манхэттенская ночь / Manhattan Night / Manhattan Nocturne (2016) WEB-DLRip
  • Манхэттенская ночь / Manhattan Night / Manhattan Nocturne (2016) WEB-DL [H.264 / 720p-LQ]
  • Манхэттенская ночь / Manhattan Night / Manhattan Nocturne (2016) BDRip [H.264 / 1080p] [EN]
  • Манхэттенская ночь / Manhattan Night / Manhattan Nocturne (2016) BDRemux [H.264 / 1080p] [EN / EN, Sp Sub]
  • Манхэттенская ночь / Manhattan Night / Manhattan Nocturne (2016) BDRip [H.264 / 720p] [EN]


    • Комментарии (0):

      Информация

      Информация

        Посетители, находящиеся в группе Гости, не могут оставлять комментарии в данной новости.

        ↓ Меню




        ↓ Опрос

        Вы добавили сайт в закладки?
        Да
        Нет


        Top 10 за месяц (Фильмы)