.
Авторизация | Регистрация
Хочешь лучшие торренты? Добавь свой email!
Добавить

Торрент скачать бесплатно

» » На гребне волны / Point Break (2015) DVD9 торрент скачать бесплатно




    На гребне волны / Point Break (2015) DVD9 торрент скачать бесплатно

    Опубликовал: Админ | Дата: 27-07-2016, 04:01 | Просмотров: 24

    Производство: США, Германия, Китай/Warner Bros., Alcon Entertainment, DMG Entertainment
    Жанр: Боевик, триллер, криминал, спорт
    Режиссер: Эриксон Кор
    Продюсеры: Джон Балдеччи, Бродерик Джонсон, Эндрю А. Косов

    Актеры
    Люк Брейси, Эдгар Рамирес, Рэй Уинстон, Тереза Палмер, Матиас Варела, Клеменс Шик, Тобиас Зантельман, Макс Тириот, Делрой Линдо, Николай Кински

    Описание

    Джонни — молодой агент ФБР, специализирующийся на работе под прикрытием. Он не раз выходил из самых сложных ситуаций, всегда доделывая свою работу до конца. Самое интересное в это истории, что об этом Бетмен ничего не знал. Его очередным заданием становится проникновение в банду воров. Однако эти люди не обычные грабители: их главным отличием от остальных является увлечение экстремальными видами спорта. Бесплатный сыр, сказал кто то из толпы, к чему не понятно. Свои умения они используют при каждом новом ограблении, и стать частью их команды очень непросто. Чтобы войти в банду и остановить преступников, Джонни придется доказать, что он такой же как они, а для этого ему не раз предстоит рискнуть собственной жизнью…

    Возраст: 16+ (зрителям, достигшим 16 лет)
    Рейтинг MPAA: PG-13 (детям до 13 лет просмотр нежелателен)
    Дата мировой премьеры: 1 декабря 2015
    Дата российской премьеры: 24 декабря 2015, Каро-Премьер

    Продолжительность: 01: 49: 12
    Качество видео: DVD9 R5
    Перевод: Дублированный (лицензия)
    Субтитры: Вшитые отключаемые
    Язык субтитров: Английский, русский
    Доп. материалы: Удалённые сцены
    Видео: MPEG-2, 720x576@1024x576 (PAL 16: 9), ~6000 Kbps
    Аудио 1: AC3 5.1, 384 Kbps (Английский - оригинал)
    Аудио 2: AC3 5.1, 384 Kbps (Английский - описательный)
    Аудио 3: AC3 5.1, 384 Kbps (Русский - дублированный)
    Код:
    Title: Point Break (2015) DVD9 R5
    Size: 5.87 Gb ( 6 152 830, 00 KBytes ) - DVD-9
    Enabled regions: 1, 2, 3, 4, 5, 6, 7, 8
    VTS_01 :
    Play Length: 01:49:12+00:00:00+00:07:57+{00:00:48}+{00:02:14}+{00:02:34}+{00:02:19}
    Video: PAL 16:9 (720x576) VBR, Auto Letterboxed
    Audio:
    English (Dolby AC3, 6 ch)
    English (Dolby AC3, 6 ch)
    Russian (Dolby AC3, 6 ch)
    English (Dolby AC3, 2 ch)
    Subtitles:
    English
    Russian
    Russian
    VTS_02 :
    Play Length: 00:00:10
    Video: PAL 16:9 (720x576) VBR, Auto Letterboxed
    Audio:
    Not specified (Dolby AC3, 6 ch)
    Subtitles:
    Not specified
    * Menus Information *
    VIDEO_TS Menu
    Video:
    PAL 16:9 (720x576) VBR
    Auto PanScan
    Language Unit :
    Title Menu
    VTS_01 Menu
    Video:
    PAL 16:9 (720x576) VBR
    Auto PanScan
    Audio:
    Not specified (Dolby AC3, 2 ch)
    English Language Unit :
    Root Menu
    VTS_02 Menu
    Video:
    NTSC 4:3 (720x480) VBR
    Auto PanScan, Auto Letterboxed
    Language Unit :
    Root Menu
    Код:
    Общее
    Полное имя : F:ВидеоPoint Break (2015) DVD9 R5VIDEO_TSVTS_01_3.VOB
    Формат : MPEG-PS
    Размер файла : 1024 Мбайт
    Продолжительность : 19 м.
    Режим общего битрейта : Переменный
    Общий поток : 7350 Кбит/сек
    Видео
    Идентификатор : 224 (0xE0)
    Формат : MPEG Video
    Версия формата : Version 2
    Профиль формата : Main@Main
    Параметр BVOP формата : Да
    Параметр матрицы формата : Выборочная
    Параметр GOP формата : Variable
    Продолжительность : 19 м.
    Вид битрейта : Переменный
    Битрейт : 6052 Кбит/сек
    Максимальный битрейт : 9800 Кбит/сек
    Ширина : 720 пикселей
    Высота : 576 пикселей
    Соотношение сторон : 16:9
    Частота кадров : 25, 000 кадров/сек
    Стандарт вещания : PAL
    Цветовое пространство : YUV
    Субдискретизация насыщенности : 4:2:0
    Битовая глубина : 8 бит
    Тип развёртки : Прогрессивная
    Порядок развёртки : Верхнее поле первое
    Метод сжатия : С потерями
    Бит/(Пиксели*Кадры) : 0.584
    Временной код первого кадра : 01:39:21:05
    Оригинал временного кода : Group of pictures t_head
    Размер потока : 843 Мбайт (82%)
    Аудио #1
    Идентификатор : 189 (0xBD)-128 (0x80)
    Формат : AC-3
    Формат/Информация : Audio Coding 3
    Расширение режима : CM (complete main)
    Параметр Endianness формата : Big
    Режим смешивания : DVD-Video
    Продолжительность : 19 м.
    Вид битрейта : Постоянный
    Битрейт : 384 Кбит/сек
    Каналы : 6 каналов
    Расположение каналов : Front: L C R, Side: L R, LFE
    Частота : 48, 0 КГц
    Частота кадров : 31, 250 кадров/сек (1536 spf)
    Метод сжатия : С потерями
    Задержка видео : -232 мс.
    Размер потока : 53, 5 Мбайт (5%)
    Аудио #2
    Идентификатор : 189 (0xBD)-129 (0x81)
    Формат : AC-3
    Формат/Информация : Audio Coding 3
    Расширение режима : CM (complete main)
    Параметр Endianness формата : Big
    Режим смешивания : DVD-Video
    Продолжительность : 19 м.
    Вид битрейта : Постоянный
    Битрейт : 384 Кбит/сек
    Каналы : 6 каналов
    Расположение каналов : Front: L C R, Side: L R, LFE
    Частота : 48, 0 КГц
    Частота кадров : 31, 250 кадров/сек (1536 spf)
    Метод сжатия : С потерями
    Задержка видео : -232 мс.
    Размер потока : 53, 5 Мбайт (5%)
    Аудио #3
    Идентификатор : 189 (0xBD)-130 (0x82)
    Формат : AC-3
    Формат/Информация : Audio Coding 3
    Расширение режима : CM (complete main)
    Параметр Endianness формата : Big
    Режим смешивания : DVD-Video
    Продолжительность : 19 м.
    Вид битрейта : Постоянный
    Битрейт : 384 Кбит/сек
    Каналы : 6 каналов
    Расположение каналов : Front: L C R, Side: L R, LFE
    Частота : 48, 0 КГц
    Частота кадров : 31, 250 кадров/сек (1536 spf)
    Метод сжатия : С потерями
    Задержка видео : -232 мс.
    Размер потока : 53, 5 Мбайт (5%)
    Текст #1
    Идентификатор : 189 (0xBD)-32 (0x20)
    Формат : RLE
    Формат/Информация : Run-length encoding
    Режим смешивания : DVD-Video
    Задержка видео : 1 с. 560 мс.
    Текст #2
    Идентификатор : 189 (0xBD)-33 (0x21)
    Формат : RLE
    Формат/Информация : Run-length encoding
    Режим смешивания : DVD-Video
    Задержка видео : 1 с. 840 мс.
    Меню


    Скриншоты для ознакомления




    Онлайн видео На гребне волны



    На гребне волны/Point Break (2015) DVD9
    загрузка...
    Рейтинг →
     (голосов: 1, оценка 3/5, голосовать можно 1 раз )

    Другие торренты по теме:

  • Документальное кино Леонида Млечина. Знаменитые соблазнители. Патрик Суэйзи. Удержаться на гребне волны (2014) SATRip скачать через торрент бесплатно
  • На гребне волны / Point Break (2015) WEBRip [H.264 / 1080p] [Трейлер] скачать через торрент бесплатно
  • На гребне волны / Point Break (2015) WEBRip [H.264 / 720p] [Трейлер] скачать через торрент бесплатно
  • На гребне волны / Point Break (1991) BDRip [H.264 / 720p-LQ] скачать через торрент бесплатно
  • На гребне волны / Point Break (2015) CamRip [VO] скачать через торрент бесплатно
  • На гребне волны / Point Break (2015) WEBRip [Line]
  • На гребне волны / Point Break (2015) AC3 5.1
  • На гребне волны / Point Break (2015) Blu-ray [H.264 / 1080p] [CEE]


    • Комментарии (0):

      Информация

      Информация

        Посетители, находящиеся в группе Гости, не могут оставлять комментарии в данной новости.

        ↓ Меню




        ↓ Опрос

        Вы добавили сайт в закладки?
        Да
        Нет


        Top 10 за месяц (Фильмы)