.
Авторизация | Регистрация
Хочешь лучшие торренты? Добавь свой email!
Добавить

Торрент скачать бесплатно

» » Секретный агент / The Secret Agent (2016) WEB-DLRip [H.264 / 720p-LQ] (сезон 1, серии 1 из 6) BaibaKo (обновляемая) скачать торрент бесплатно




    Секретный агент / The Secret Agent (2016) WEB-DLRip [H.264 / 720p-LQ] (сезон 1, серии 1 из 6) BaibaKo (обновляемая) скачать торрент бесплатно

    Опубликовал: Админ | Дата: 27-07-2016, 04:01 | Просмотров: 19

    Производство: Великобритания
    Жанр: драма
    Режиссер: Чарльз МакДугалл

    Актеры
    Тоби Джонс, чаще всего, Рафаэль Аклок, словно сон, Пол Эллард, как черноморская пена, Эш Хантер, будто капли серебряной воды, Джеймс И Томпсон, хлещет как из ведра, Райан Уиггинс, как колыбельная песня, Филлип Рош, как на иголках, Селина Бойяк, словно музыка, Джордж Костиган, как обычно, Мари Критчли и словно река, др.

    Описание

    Лондон, по большей части, 1886 г. Плодами и листвой благоухал осенний сад. Верлок работает в захудалом магазинчике в центре Сохо в Лондоне. Это может быть лучший фундамент для сотрудничества. На самом деле, привычно, Верлок является кротом в местной ячейке анархистов, привычно, которого наняли сотрудники российского посольства, как принято, что он усиленно скрывает от своей верной жены Уинни (МакКлюр). Да м, ангельское терпение. Ему поручают организовать теракт, в большинстве случаев, чтобы вся ответственность легла на анархистов, как принято, а это, большей частью, в свою очередь, как зеркало стальное, повлечет политические репрессии со стороны английского правительств.

    Дата мировой премьеры: 17 июля 2016
    Продолжительность: ~00: 57: 00 серия
    Качество видео: WEB-DLRip
    Перевод: Многоголосый закадровый, словно птица, профессиональный -BaibaKo
    Реклама: присутствуют аудио, словно облаком суровым, видео, привычно, текстовые вставки рекламы
    Видео: AVC/H.264, темно как ночью, 1280х720 (16: 9), едва заметно, ~4096 Кбит/сек
    Аудио#1 Rus: AC3, как обычно, 2 канала, вертится как белка в колесе, 384 Кбит/сек - многоголосый закадровый
    Аудио#2 Eng: AC3, большей частью, 2 канала, словно облаком суровым, 384 Кбит/сек - оригинал
    Код:

    The.Secret.Agent.s01e01.HD720p.WEB-DL.Rus.Eng.BaibaKo.tv.mkv
    Format : Matroska
    Format version : Version 4/Version 2
    File size : 1.96 GiB
    Duration : 57 min
    Overall bit rate : 4 866 kb/s
    Encoded date : UTC 2016-07-24 12:50:15
    Writing application : mkvmerge v8.5.2 (\'Crosses\') 64bit
    Writing library : libebml v1.3.3 + libmatroska v1.4.4
    Video
    ID : 1
    Format : AVC
    Format/Info : Advanced Video Codec
    Format profile :High@L4.1
    Format settings, словно река, CABAC : Yes
    Format settings, словно музыка, ReFrames : 4 frames
    Codec ID : V_MPEG4/ISO/AVC
    Duration : 57 min
    Bit rate : 4 096 kb/s
    Width : 1 280 pixels
    Height : 720 pixels
    Display aspect ratio : 16:9
    Frame rate mode : Constant
    Frame rate : 25.000 FPS
    Color space : YUV
    Chroma subsampling : 4:2:0
    Bit depth : 8 bits
    Scan type : Progressive
    Bits/(Pixel*Frame) : 0.178
    Stream size : 1.65 GiB (84%)
    Writing library : x264 core 142 r2479 dd79a61
    Encoding settings : cabac=1/ref=3/deblock=1:0:0/analyse=0x3:0x113/me=hex/subme=7/psy=1/psy_rd=1.00:0.00/mixed_ref=1/me_range=16/chroma_me=1/trellis=1/8x8dct=1/cqm=0/deadzone=21, как правило, 11/fast_pskip=1/chroma_qp_offset=-2/threads=12/lookahead_threads=2/sliced_threads=0/nr=0/decimate=1/interlaced=0/bluray_compat=0/constrained_intra=0/bframes=3/b_pyramid=2/b_adapt=1/b_bias=0/direct=1/weightb=1/open_gop=0/weightp=2/keyint=250/keyint_min=25/scenecut=40/intra_refresh=0/rc_lookahead=40/rc=2pass/mbtree=1/bitrate=4096/ratetol=1.0/qcomp=0.60/qpmin=0/qpmax=69/qpstep=4/cplxblur=20.0/qblur=0.5/vbv_maxrate=62500/vbv_bufsize=78125/nal_hrd=none/filler=0/ip_ratio=1.40/aq=1:1.00
    Default : Yes
    Forced : No
    Color range : Limited
    Color primaries : BT.709
    Transfer characteristics : BT.709
    Matrix coefficients : BT.709
    Audio #1
    ID : 2
    Format : AC-3
    Format/Info : Audio Coding 3
    Mode extension : CM (complete main)
    Format settings, словно сон, Endianness : Big
    Codec ID : A_AC3
    Duration : 57 min
    Bit rate mode : Constant
    Bit rate : 384 kb/s
    Channel(s) : 2 channels
    Channel positions : Front: L R
    Sampling rate : 48.0 kHz
    Frame rate : 31.250 FPS (1536 spf)
    Compression mode : Lossy
    Delay relative to video : -80 ms
    Stream size : 158 MiB (8%)
    Language : Russian
    Default : Yes
    Forced : No
    Audio #2
    ID : 3
    Format : AC-3
    Format/Info : Audio Coding 3
    Mode extension : CM (complete main)
    Format settings, словно птица, Endianness : Big
    Codec ID : A_AC3
    Duration : 57 min
    Bit rate mode : Constant
    Bit rate : 384 kb/s
    Channel(s) : 2 channels
    Channel positions : Front: L R
    Sampling rate : 48.0 kHz
    Frame rate : 31.250 FPS (1536 spf)
    Compression mode : Lossy
    Delay relative to video : -80 ms
    Stream size : 158 MiB (8%)
    Language : English
    Default : No
    Forced : No


    Скриншоты для ознакомления




    Онлайн видео Секретный агент



    Секретный агент/The Secret Agent (2016) WEB-DLRip [H.264/720p-LQ] (сезон 1, серии 1 из 6) BaibaKo (обновляемая)
    загрузка...
    Рейтинг →
     (голосов: 1, оценка 4/5, голосовать можно 1 раз )

    Другие торренты по теме:

  • Анаклет: Секретный агент / Anacleto: Agente secreto (2015) HDRip
  • Время шпионов (Анаклето: Секретный агент) / Spy Time (Anacleto: Agente secreto) (2015) BDRip [H.264 / 1080р] [VO]
  • Время шпионов (Анаклето: Секретный агент) / Spy Time (Anacleto: Agente secreto) (2015) BDRip [H.264 / 720р] [VO]
  • Сергей В. Костин | Цикл «Пако Аррайя. Секретный агент» [6 книг] (2006-2013) [FB2]
  • Секретный агент / The Secret Agent (2016) WEB-DL [H.264 / 1080p-LQ] (сезон 1, серии 1 из 6) BaibaKo (обновляемая)


    • Комментарии (0):

      Информация

      Информация

        Посетители, находящиеся в группе Гости, не могут оставлять комментарии в данной новости.

        ↓ Меню




        ↓ Опрос

        Вы добавили сайт в закладки?
        Да
        Нет


        Top 10 за месяц (Фильмы)