.
Авторизация | Регистрация
Хочешь лучшие торренты? Добавь свой email!
Добавить

Торрент скачать бесплатно

» » Однажды ночью / Той ночью / The Night Of (2016) HDTVRip (сезон 1, серии 1-3 из 8) Novamedia (обновляемая) торрент скачать бесплатно




    Однажды ночью / Той ночью / The Night Of (2016) HDTVRip (сезон 1, серии 1-3 из 8) Novamedia (обновляемая) торрент скачать бесплатно

    Опубликовал: Админ | Дата: 27-07-2016, 04:01 | Просмотров: 19861

    Производство: США/BBC Drama Productions, BBC Worldwide Productions, Film Rites
    Жанр: драма, криминал
    Режиссер: Стивен Зеллиан, Джеймс Марш

    Актеры
    Пурна Джаганнатан, Сиам М. Лафи, Джон Туртурро, Дэвид Чен, Амара Каран, Реджинальд Барнс, Крис Брайант, Ксавьер Кадо, Лорд Джамар, Кристофер Жиро и др.

    Описание

    Молодой нью-йоркский таксист Назир ночью знакомится с девушкой, мимолетная связь заканчивается трагедией. Проснувшись утром после бурной ночи с незнакомкой, он обнаруживает рядом ее труп и становится основным и единственным подозреваемым в убийстве. Попытки Назира рассказать адвокату все как было в реальности в ту злополучную ночь обречены на провал. Адвокат уверен, что его подзащитный виновен и на это указывают все улики, найденные на месте убийства. В итоге Назир отправляется в тюрьму, где ему предстоит пройти немало испытаний.

    Дата мировой премьеры: 24 июня 2016
    Продолжительность: ~00: 57: 00 серия (1 серия - 01: 15: 22)
    Качество видео: HDTVRip
    Перевод: Многоголосый закадровый, профессиональный -студия Novamedia по заказу Amedia
    Видео: XviD, 720x400 (16: 9), ~1500 Kb/s
    Аудио Rus: MPEG Layer 3, 48, 0 kHz, 2 ch, 128 kb/s — многоголосый закадровый
    Аудио Eng: MPEG Layer 3, 48, 0 kHz, 2 ch, 128 kb/s — оригинал
    Код:

    Общее
    Полное имя : D:Однажды ночью (сезон любимого сериала 1) The Night Of (2016) HDTVRip - AmediaThe.Night.Of.[S01E01].XviD.Amedia.[qqss44].avi
    Формат : AVI
    Формат/Информация : Audio Video Interleave
    Размер файла : 950 Мбайт
    Продолжительность : 1 ч. 15 м.
    Общий поток : 1762 Кбит/сек
    Программа кодирования : VirtualDubMod 1.5.10.3 |www.virtualdub-fr.org|| (build 2550/release)
    Библиотека кодирования : VirtualDubMod build 2550/release
    Видео
    Идентификатор : 0
    Формат : MPEG-4 Visual
    Профиль формата : Advanced Simple@L5
    Параметр BVOP формата : 2
    Параметр QPel формата : Нет
    Параметр GMC формата : Без точки перехода
    Параметр матрицы формата : Default (MPEG)
    Идентификатор кодека : XVID
    Идентификатор кодека/Подсказка : XviD
    Продолжительность : 1 ч. 15 м.
    Битрейт : 1492 Кбит/сек
    Ширина : 720 пикселей
    Высота : 400 пикселей
    Соотношение сторон : 16:9
    Частота кадров : 25, 000 кадров/сек
    Цветовое пространство : YUV
    Субдискретизация насыщенности : 4:2:0
    Битовая глубина : 8 бит
    Тип развёртки : Прогрессивная
    Метод сжатия : С потерями
    Бит/(Пиксели*Кадры) : 0.207
    Размер потока : 804 Мбайт (85%)
    Библиотека кодирования : XviD 73
    Аудио #1
    Идентификатор : 1
    Формат : MPEG Audio
    Версия формата : Version 1
    Профиль формата : Layer 3
    Режим : Joint stereo
    Расширение режима : MS Stereo
    Идентификатор кодека : 55
    Идентификатор кодека/Подсказка : MP3
    Продолжительность : 1 ч. 15 м.
    Вид битрейта : Постоянный
    Битрейт : 128 Кбит/сек
    Каналы : 2 канала
    Частота : 48, 0 КГц
    Метод сжатия : С потерями
    Размер потока : 69, 0 Мбайт (7%)
    Выравнивание : Соединение по промежуткам
    Продолжительность промежутка : 40 мс. (1, 00 видеокадр)
    Время предзагрузки промежутка : 504 мс.
    Аудио #2
    Идентификатор : 2
    Формат : MPEG Audio
    Версия формата : Version 1
    Профиль формата : Layer 3
    Режим : Joint stereo
    Расширение режима : MS Stereo
    Идентификатор кодека : 55
    Идентификатор кодека/Подсказка : MP3
    Продолжительность : 1 ч. 15 м.
    Вид битрейта : Постоянный
    Битрейт : 128 Кбит/сек
    Каналы : 2 канала
    Частота : 48, 0 КГц
    Метод сжатия : С потерями
    Размер потока : 69, 0 Мбайт (7%)
    Выравнивание : Соединение по промежуткам
    Продолжительность промежутка : 40 мс. (1, 00 видеокадр)
    Время предзагрузки промежутка : 504 мс.


    Скриншоты для ознакомления




    Онлайн видео Однажды ночью



    Однажды ночью/Той ночью/The Night Of (2016) HDTVRip (сезон 1, серии 1-3 из 8) Novamedia (обновляемая)
    загрузка...
    Рейтинг →
     (голосов: 1, оценка 3/5, голосовать можно 1 раз )

    Другие торренты по теме:

  • Однажды ночью / Той ночью / The Night Of (2016) HDTVRip (сезон 1, серии 1 из 8) NewStudio (обновляемая)
  • Однажды ночью / Той ночью / The Night Of (2016) HDTVRip [H.264 / 720p-LQ] (сезон 1, серии 1 из 8) NewStudio (обновляемая)
  • Однажды ночью / Той ночью / The Night Of (2016) HDTVRip [H.264 / 1080p-LQ] (сезон 1, серии 1 из 8) NewStudio (обновляемая)
  • Однажды ночью / Той ночью / The Night Of (2016) HDTVRip [H.264 / 720p-LQ] (сезон 1, серии 1 из 8) BaibaKo (обновляемая)
  • Однажды ночью / Той ночью / The Night Of (2016) HDTVRip [H.264 / 720p-LQ] (сезон 1, серии 1-2 из 8) Novamedia (обновляемая)
  • Однажды ночью / The Night Of (2016) HDTVRip [H.264 / 720p-LQ] (сезон 1, серии 1 из 8) Coldfilm (Обновляемая)
  • Однажды ночью / The Night Of (2016) HDTV [H.264 / 720p-LQ] (сезон 1, серии 1 из 8) IdeaFilm (Обновляемая)
  • Наталья Косухина | Однажды тихой темной ночью... (2016) [MP3]


    • Комментарии (0):

      Информация

      Информация

        Посетители, находящиеся в группе Гости, не могут оставлять комментарии в данной новости.

        ↓ Меню




        ↓ Опрос

        Вы добавили сайт в закладки?
        Да
        Нет


        Top 10 за месяц (Фильмы)