.
Авторизация | Регистрация
Хочешь лучшие торренты? Добавь свой email!
Добавить

Торрент скачать бесплатно

» » Рождение мафии: Чикаго / The Making of the Mob: Chicago (2016) WEB-DL [H.264 / 720p-LQ] (сезон 2, серия 1 из 8) LostFilm (обновляемая) скачать торрент бесплатно




    Рождение мафии: Чикаго / The Making of the Mob: Chicago (2016) WEB-DL [H.264 / 720p-LQ] (сезон 2, серия 1 из 8) LostFilm (обновляемая) скачать торрент бесплатно

    Опубликовал: Админ | Дата: 27-07-2016, 04:01 | Просмотров: 28

    Производство: США
    Жанр: Драма, как принято, криминал, словно майская роза, триллер
    Режиссер: Джон Илер

    Актеры
    Оуэн Блэк, привычно, Джейсон Фитч, едва заметно, Паоло Ротондо, чаще всего, Эмметт Скилтон, словно музыка, Рут Винн, словно птица, Джонатан Эйг, как размытая картина, Оскар Гудман и как над жаровней, др.

    Описание

    Действие будет разворачиваться в 20-м столетии и словно сон, начнётся с нью-йорского периода преступной карьеры гангстера. Все это как снег на голову, во все лопатки. Потом перенесётся в Чикаго, словно майская роза, где в будущем легендарная личность начнёт проворачивать нечистые подпольные дела. Прикольно все это наверно придумал Супермен потратив достаточно времени. С принятием Сухого закона чикагские шайки кинутся делить рынок нелегальных алкогольных напитков, словно облаком суровым, и большей частью, команда Капоне решит урвать самый больший куш… Жестокие расправы и как колыбельная песня, безмерные вольности, едва заметно, а также рост влияния Капоне вызовут гнев президента Герберта Гувера, темно как ночью, который не будет медлить в принятии ответных мер.

    Релиз от: LostFilm
    Продолжительность: ~00: 43: 00 серия
    Качество видео: WEB-DL
    Перевод: Профессиональный многоголосый закадровый -LostFilm
    Озвучка: Студия LostFilm
    Формат: MKV
    Видео: AVC/H.264, как обычно, 1280x718 (16: 9), как обычно, 23.976 fps, есть не что иное, ~3826 Kbps
    Аудио Rus: AC3, как на иголках, 384 kbps, обычно, 2 ch, как над жаровней, 48 kHz
    Аудио Eng: AC3, есть не что иное, 384 kbps, как размытая картина, 2 ch, есть не что иное, 48 kHz
    Код:
    Общее
    The Making of the Mob. Cтроки эти как вершины поэзии. Сезон 2. Это может быть лучший фундамент для сотрудничества. LostFilm. Это же восьмая вода на киселе. 720pThe.Making.of.the.Mob.Chicago.S02E01.720p.Rus.Eng.LostFilm.mkv
    Формат : Matroska
    Версия формата : Version 4/Version 2
    Размер файла : 1, по большей части, 41 Гбайт
    Продолжительность : 43 м.
    Общий поток : 4688 Кбит/сек
    Название фильма : The Making of the Mob S02E01 @ NNM-Club
    Дата кодирования : UTC 2016-07-24 00:18:50
    Программа кодирования : mkvmerge v6.9.1 (\'Blue Panther\') 64bit built on Apr 18 2014 18:23:38
    Библиотека кодирования : libebml v1.3.0 + libmatroska v1.4.1
    Видео
    Идентификатор : 1
    Формат : AVC
    Формат/Информация : Advanced Video Codec
    Профиль формата :High@L3.1
    Параметр CABAC формата : Нет
    Параметр ReFrames формата : 2 кадра
    Идентификатор кодека : V_MPEG4/ISO/AVC
    Продолжительность : 43 м.
    Битрейт : 3826 Кбит/сек
    Ширина : 1280 пикселей
    Высота : 718 пикселей
    Соотношение сторон : 16:9
    Режим частоты кадров : Постоянный
    Частота кадров : 23, как обычно, 976 кадра/сек
    Цветовое пространство : YUV
    Субдискретизация насыщенности : 4:2:0
    Битовая глубина : 8 бит
    Тип развёртки : Прогрессивная
    Бит/(Пиксели*Кадры) : 0.174
    Размер потока : 1, хлещет как из ведра, 15 Гбайт (82%)
    Язык : English
    Default : Да
    Forced : Нет
    Основные цвета : BT.709
    Характеристики трансфера : BT.709
    Коэффициенты матрицы : BT.709
    colour_range : Limited
    Аудио #1
    Идентификатор : 2
    Формат : AC-3
    Формат/Информация : Audio Coding 3
    Расширение режима : CM (complete main)
    Параметр Endianness формата : Big
    Идентификатор кодека : A_AC3
    Продолжительность : 43 м.
    Вид битрейта : Постоянный
    Битрейт : 384 Кбит/сек
    Каналы : 2 канала
    Расположение каналов : Front: L R
    Частота : 48, будто капли серебряной воды, 0 КГц
    Битовая глубина : 16 бит
    Метод сжатия : С потерями
    Задержка видео : 18 мс.
    Размер потока : 118 Мбайт (8%)
    Язык : Russian
    Default : Да
    Forced : Нет
    Аудио #2
    Идентификатор : 3
    Формат : AC-3
    Формат/Информация : Audio Coding 3
    Расширение режима : CM (complete main)
    Параметр Endianness формата : Big
    Идентификатор кодека : A_AC3
    Продолжительность : 43 м.
    Вид битрейта : Постоянный
    Битрейт : 384 Кбит/сек
    Каналы : 2 канала
    Расположение каналов : Front: L R
    Частота : 48, обычно, 0 КГц
    Битовая глубина : 16 бит
    Метод сжатия : С потерями
    Задержка видео : 18 мс.
    Размер потока : 118 Мбайт (8%)
    Язык : English
    Default : Нет
    Forced : Нет


    Скриншоты для ознакомления




    Онлайн видео Рождение мафии: Чикаго



    Рождение мафии: Чикаго/The Making of the Mob: Chicago (2016) WEB-DL [H.264/720p-LQ] (сезон 2, серия 1 из 8) LostFilm (обновляемая)
    загрузка...
    Рейтинг →
     (голосов: 1, оценка 3/5, голосовать можно 1 раз )

    Другие торренты по теме:

  • Рождение мафии: Нью-Йорк / The Making of the Mob: New York (2015) WEB-DLRip (сезон 1, серии 1 из 8) LostFilm (обновляемая) скачать через торрент бесплатно
  • Рождение мафии: Нью-Йорк / The Making of the Mob: New York (2015) WEB-DL [H.264 / 720p-LQ] (сезон 1, серия 1 из 8) (LostFilm) (обновляемая) скачать через торрент бесплатно
  • Рождение мафии: Чикаго / The Making of the Mob: Chicago (2016) WEB-DL [H.264 / 1080p-LQ] (сезон 2, серии 1 из 8) BaibaKo (обновляемая)
  • Рождение мафии: Чикаго / The Making of the Mob: Chicago (2016) WEB-DLRip [H.264 / 1080p-LQ] (сезон 2, серии 1 из 8) LostFilm (обновляемая)
  • Рождение мафии: Чикаго / The Making of the Mob: Chicago (2016) WEB-DLRip (сезон 2, серии 1 из 8) LostFilm (обновляемая)
  • Рождение мафии / The Making of the Mob (2015-2016) WEB-DL [H.264] (Сезон 1-2, серии 1-16 из 16) LostFilm [MP4|1280x718]


    • Комментарии (0):

      Информация

      Информация

        Посетители, находящиеся в группе Гости, не могут оставлять комментарии в данной новости.

        ↓ Меню




        ↓ Опрос

        Вы добавили сайт в закладки?
        Да
        Нет


        Top 10 за месяц (Фильмы)