.
Авторизация | Регистрация
Хочешь лучшие торренты? Добавь свой email!
Добавить

Торрент скачать бесплатно

» » Снайпер: Призрачный стрелок / Sniper: Ghost Shooter (2016) DVDRip торрент скачать бесплатно




    Снайпер: Призрачный стрелок / Sniper: Ghost Shooter (2016) DVDRip торрент скачать бесплатно

    Опубликовал: Админ | Дата: 25-07-2016, 04:00 | Просмотров: 73

    Производство: США, UFO International Productions
    Жанр: Боевик, Драма, Военный
    Режиссер: Дон Майкл Пол

    Актеры
    Билли Зейн, Дэннис Хэйсбёрт, Стефани Вогт, Чад Коллинз, Ник Гомес, Пресцилиана Эспаролини, Энок Фрост, Найджел Барбер, Велислав Павлов

    Описание

    Элитные снайперы Брэндон Беккет и Ричард Миллер должны выполнить очередную задачу, защитив линию газопровода от захвата террористов. Когда герои понимают, что противник знает их точное место расположения, у них появляются подозрения о том, что кто-то информирует террористов...

    Рейтинг MPAA: R (лицам до 17 лет обязательно присутствие взрослого)
    Дата мировой премьеры: 2 августа 2016
    Продолжительность: 01: 44: 16
    Качество видео: DVDRip
    Перевод: Многоголосый закадровый, любительский (Parovoz Production)
    Вид субтитров: Отсутствуют
    Реклама: Присутствуют голосовые и текстовые вставки рекламы
    Видео: Xvid, 720x400, ~1796 Кбит/сек
    Аудио: AC3, 2 ch, 192 Кбит/сек, CBR
    Код:

    Общее
    Полное имя : C:ТоррентыСнайпер.Призрачный стрелок.2016.L.DVDRip.avi
    Формат : AVI
    Формат/Информация : Audio Video Interleave
    Размер файла : 1, 45 Гбайт
    Продолжительность : 1 ч. 44 м.
    Общий поток : 1997 Кбит/сек
    Программа кодирования : VirtualDubMod 1.5.10.3 (build 2550/release)
    Библиотека кодирования : VirtualDubMod build 2550/release
    Видео
    Идентификатор : 0
    Формат : MPEG-4 Visual
    Профиль формата : Advanced Simple@L5
    Параметр BVOP формата : 2
    Параметр QPel формата : Нет
    Параметр GMC формата : Без точки перехода
    Параметр матрицы формата : Default (MPEG)
    Идентификатор кодека : XVID
    Идентификатор кодека/Подсказка : XviD
    Продолжительность : 1 ч. 44 м.
    Битрейт : 1796 Кбит/сек
    Ширина : 720 пикселей
    Высота : 400 пикселей
    Соотношение сторон : 16:9
    Частота кадров : 23, 976 (24000/1001) кадра/сек
    Цветовое пространство : YUV
    Субдискретизация насыщенности : 4:2:0
    Битовая глубина : 8 бит
    Тип развёртки : Прогрессивная
    Метод сжатия : С потерями
    Бит/(Пиксели*Кадры) : 0.260
    Размер потока : 1, 31 Гбайт (90%)
    Библиотека кодирования : XviD 1.2.1 (UTC 2008-12-04)
    Аудио
    Идентификатор : 1
    Формат : AC-3
    Формат/Информация : Audio Coding 3
    Расширение режима : CM (complete main)
    Параметр Endianness формата : Big
    Идентификатор кодека : 2000
    Продолжительность : 1 ч. 44 м.
    Вид битрейта : Постоянный
    Битрейт : 192 Кбит/сек
    Каналы : 2 канала
    Расположение каналов : Front: L R
    Частота : 48, 0 КГц
    Частота кадров : 31, 250 кадров/сек (1536 spf)
    Метод сжатия : С потерями
    Размер потока : 143 Мбайт (10%)
    Выравнивание : Разделение по промежуткам
    Продолжительность промежутка : 42 мс. (1, 00 видеокадр)
    Время предзагрузки промежутка : 500 мс.

    Скриншоты для ознакомления



    Все одноименные релизы в Клубе
    Время раздачи: с 10.00 до 22.00 (до появления первых 3-5 скачавших)

    Снайпер: Призрачный стрелок/Sniper: Ghost Shooter (2016) DVDRip
    загрузка...
    Рейтинг →
     (голосов: 1, оценка 5/5, голосовать можно 1 раз )

    Другие торренты по теме:

  • Cнайпер: воин призрак / Снайпер: призрачный стрелок / Sniper: Ghost Shooter (2016) WEB-DL [H.264 / 1080p-LQ]
  • Cнайпер: воин призрак / Снайпер: призрачный стрелок / Sniper: Ghost Shooter (2016) WEB-DLRip


    • Комментарии (0):

      Информация

      Информация

        Посетители, находящиеся в группе Гости, не могут оставлять комментарии в данной новости.

        ↓ Меню




        ↓ Опрос

        Вы добавили сайт в закладки?
        Да
        Нет


        Top 10 за месяц (Фильмы)