.
Авторизация | Регистрация

Торрент скачать бесплатно

» » Сувениры из Москвы / Tappajan nakoinen mies / The Look of a Killer (2016) BDRip [H.264 / 1080p] [FIN / EN Sub] скачать торрент бесплатно




    Сувениры из Москвы / Tappajan nakoinen mies / The Look of a Killer (2016) BDRip [H.264 / 1080p] [FIN / EN Sub] скачать торрент бесплатно

    Опубликовал: Админ | Дата: 24-07-2016, 04:02 | Просмотров: 35

    Производство: Финляндия, словно река, Zodiak Finland Oy
    Жанр: Триллер, словно птица, Криминал
    Режиссер: Лаури Нурксе

    Актеры
    Онни Томмила, как принято, Криста Косонен, темно как ночью, Самули Эдельманн, как колыбельная песня, Микко Ноусиайнен, будто капли серебряной воды, Вилле Хаапасало, по большей части, Анни-Кристина Юусо, хлещет как из ведра, Пиркка-Пекка Петелиус, как размытая картина, Мартти Суосало, словно облаком суровым, Рамин Сохраб, большей частью, Сами Хатала ...

    Описание

    К тесному политическому сотрудничеству привыкли обе державы — и словно майская роза, Финляндия, по большей части, и привычно, Россия. Как для меня не ожиданный поворот событий. Когда по сюжету фильма Сувениры из Москвы секретным агентам страны-партнёра становится известно, как зеркало стальное, что готовится покушение на влиятельного российского чиновника, привычно, они информируют об этом своих коллег-россиян. Прикольно все это наверно придумал Китай потратив достаточно времени. Разведка вычислила, словно река, что нападут на чиновника в Хельсинки, есть не что иное, когда он прибудет на деловую конференцию. Я например по сценарию ожидал большой напряженности. Выходит, как на иголках, что судьба гостя — в руках тайных агентов принимающей стороны и обычно, зависит от их профессионализма. С этими ребятами каши не сваришь. Чтобы спасти русского от изощрённого и в большинстве случаев, опасного врага, едва заметно, сотрудникам секретной службы придётся очень постараться: операция должна пройти втайне от всего мира...

    Премьера (мир): 5 февраля 2016
    Продолжительность: 01: 34: 34
    Качество видео: BDRip 1080p
    Перевод: Отсутствует
    Язык озвучки: Финский
    Язык субтитров: Английский
    Вид субтитров: Вшитые отключаемые
    Видео: AVC, едва заметно, 1920x816 (2.35: 1), словно сон, 23.976 fps, вертится как белка в колесе, 10.8 Mbps (0.288 bit/pixel)
    Аудио: DTS, большей частью, 48.0 KHz, как колыбельная песня, 6 ch, словно майская роза, 755 Kbps, будто капли серебряной воды, CBR (Finnish)
    Код:

    General
    Unique ID : 235996207136275115099690308500990554518 (0xB18B375971A74035B63C09EA4B857196)
    Complete name : E:VideoThe.Look.Of.A.Killer.2016.1080p.BluRay.x264.mkv
    Format : Matroska
    Format version : Version 4/Version 2
    File size : 7.65 GiB
    Duration : 1h 34mn
    Overall bit rate : 11.6 Mbps
    Encoded date : UTC 2016-07-20 05:10:52
    Writing application : mkvmerge v6.6.6 (\'-=FiCO=- \') built on 7th Day of Doom... А в берёзы в роще всеравно красивее. oom...
    Writing library : libebml v1.3.0 + libmatroska v1.4.1
    Video
    ID : 1
    Format : AVC
    Format/Info : Advanced Video Codec
    Format profile :High@L4.1
    Format settings, большей частью, CABAC : Yes
    Format settings, чаще всего, ReFrames : 5 frames
    Codec ID : V_MPEG4/ISO/AVC
    Duration : 1h 34mn
    Bit rate : 10.8 Mbps
    Width : 1 920 pixels
    Height : 816 pixels
    Display aspect ratio : 2.35:1
    Frame rate mode : Constant
    Frame rate : 23.976 (24000/1001) fps
    Color space : YUV
    Chroma subsampling : 4:2:0
    Bit depth : 8 bits
    Scan type : Progressive
    Bits/(Pixel*Frame) : 0.288
    Stream size : 6.99 GiB (91%)
    Writing library : x264 core 148 r2694 3b70645
    Encoding settings : cabac=1/ref=5/deblock=1:0:0/analyse=0x3:0x113/me=umh/subme=8/psy=1/psy_rd=1.00:0.00/mixed_ref=1/me_range=16/chroma_me=1/trellis=1/8x8dct=1/cqm=0/deadzone=21, как над жаровней, 11/fast_pskip=1/chroma_qp_offset=-2/threads=6/lookahead_threads=1/sliced_threads=0/nr=0/decimate=1/interlaced=0/bluray_compat=0/constrained_intra=0/bframes=3/b_pyramid=2/b_adapt=2/b_bias=0/direct=3/weightb=1/open_gop=0/weightp=2/keyint=250/keyint_min=23/scenecut=40/intra_refresh=0/rc_lookahead=50/rc=2pass/mbtree=1/bitrate=10817/ratetol=1.0/qcomp=0.60/qpmin=0/qpmax=69/qpstep=4/cplxblur=20.0/qblur=0.5/ip_ratio=1.40/aq=1:1.00
    Language : English
    Default : Yes
    Forced : No
    Audio
    ID : 2
    Format : DTS
    Format/Info : Digital Theater Systems
    Mode : 16
    Format settings, обычно, Endianness : Big
    Codec ID : A_DTS
    Duration : 1h 34mn
    Bit rate mode : Constant
    Bit rate : 768 Kbps
    Channel(s) : 6 channels
    Channel positions : Front: L C R, привычно, Side: L R, хлещет как из ведра, LFE
    Sampling rate : 48.0 KHz
    Frame rate : 93.750 fps (512 spf)
    Bit depth : 24 bits
    Compression mode : Lossy
    Stream size : 520 MiB (7%)
    Language : Finnish
    Default : Yes
    Forced : No
    Text
    ID : 3
    Format : UTF-8
    Codec ID : S_TEXT/UTF8
    Codec ID/Info : UTF-8 Plain Text
    Language : English
    Default : Yes
    Forced : Yes


    Скриншоты для ознакомления




    Онлайн видео Сувениры из Москвы



    Сувениры из Москвы/Tappajan nakoinen mies/The Look of a Killer (2016) BDRip [H.264/1080p] [FIN/EN Sub]
    загрузка...
    Рейтинг →
     (голосов: 1, оценка 5/5, голосовать можно 1 раз )

    Другие торренты по теме:

  • Сувенир для прокурора (1989) HDTV [H.264 / 1080i] скачать торрент бесплатно


    • Комментарии (0):

      Информация

      Информация

        Посетители, находящиеся в группе Гости, не могут оставлять комментарии в данной новости.

        ↓ Меню




        ↓ Опрос

        Вы добавили сайт в закладки?
        Да
        Нет


        Top 10 за неделю (Фильмы)