.
Авторизация | Регистрация
Хочешь лучшие торренты? Добавь свой email!
Добавить

Торрент скачать бесплатно

» » Футболисты / Игроки / Ballers (2016) HDTV [H.264 / 1080p-LQ] (сезон 1, серии 1 из 10) NewStudio (обновляемая) торрент скачать бесплатно




    Футболисты / Игроки / Ballers (2016) HDTV [H.264 / 1080p-LQ] (сезон 1, серии 1 из 10) NewStudio (обновляемая) торрент скачать бесплатно

    Опубликовал: Админ | Дата: 24-07-2016, 04:02 | Просмотров: 145

    Производство: США
    Жанр: драма, комедия, спорт
    Режиссер: Джулиан Фарино, Саймон Селлан Джоунс, Питер Берг

    Актеры
    Дуэйн Джонсон, Роб Кордри, Джон Дэвид Вашингтон, Омар Бенсон Миллер, Донован В. Картер, Трой Гэрити, Жасмин Саймон, Эллен Маргарит Калливан, Дьюли Хилл и др.

    Описание

    Новый совместный проект Дуэйна Скалы Джонсона, Марка Уолберга и режиссера Хэнкока Питера Берга - комедийная драма НВО о жизни профессиональных игроков в американский футбол. Они зарабатывают миллионы, на них молятся фанаты, их показывают в новостях. Но помимо многочасовых тренировок, пятничных игр и вспышек фотокамер у них есть друзья, семьи и, конечно, проблемы – почти такие же, как у обычных людей. С девушкой помириться - это, знаете ли, не тачдаун оформить.

    Продолжительность: ~00: 27: 00 серия
    Качество видео: HDTV
    Перевод: Многоголосый закадровый, профессиональный -NewStudio
    Реклама: присутствуют аудио и видео вставки рекламы
    Видео: AVC/H.264, 1920х1080 (16: 9), ~5000 Kbps
    Аудио #1 Rus: AC3, 6 ch, 384 kbps - многоголосый закадровый
    Аудио #2 Eng: AC3, 6 ch, 384 kbps - оригинальный
    Код:

    Ballers.s02e01.HDTV.1080p.NewStudio.mkv
    Format : Matroska
    Format version : Version 4/Version 2
    File size : 1.03 GiB
    Duration : 26 min
    Overall bit rate : 5 544 kb/s
    Encoded date : UTC 2016-07-21 20:02:19
    Writing application : mkvmerge v8.2.0 (\'World of Adventure\') 32bit
    Writing library : libebml v1.3.1 + libmatroska v1.4.2
    Video
    ID : 1
    Format : AVC
    Format/Info : Advanced Video Codec
    Format profile :High@L4.1
    Format settings, CABAC : Yes
    Format settings, ReFrames : 4 frames
    Codec ID : V_MPEG4/ISO/AVC
    Duration : 26 min
    Bit rate : 5 000 kb/s
    Width : 1 920 pixels
    Height : 1 080 pixels
    Display aspect ratio : 16:9
    Frame rate mode : Constant
    Frame rate : 23.976 (24000/1001) FPS
    Color space : YUV
    Chroma subsampling : 4:2:0
    Bit depth : 8 bits
    Scan type : Progressive
    Bits/(Pixel*Frame) : 0.101
    Stream size : 908 MiB (86%)
    Writing library : x264 core 142 r2491 24e4fed
    Encoding settings : cabac=1/ref=3/deblock=1:1:-1/analyse=0x3:0x133/me=umh/subme=9/psy=1/psy_rd=1.00:0.00/mixed_ref=1/me_range=48/chroma_me=1/trellis=2/8x8dct=1/cqm=0/deadzone=21, 11/fast_pskip=0/chroma_qp_offset=-2/threads=36/lookahead_threads=4/sliced_threads=0/slices=4/nr=0/decimate=1/interlaced=0/bluray_compat=0/constrained_intra=0/bframes=6/b_pyramid=2/b_adapt=2/b_bias=0/direct=3/weightb=1/open_gop=0/weightp=2/keyint=250/keyint_min=22/scenecut=40/intra_refresh=0/rc_lookahead=50/rc=2pass/mbtree=1/bitrate=5000/ratetol=1.0/qcomp=0.70/qpmin=10/qpmax=49/qpstep=4/cplxblur=20.0/qblur=0.5/vbv_maxrate=9000/vbv_bufsize=2500/nal_hrd=none/filler=0/ip_ratio=1.40/aq=1:1.00
    Default : Yes
    Forced : No
    Audio #1
    ID : 2
    Format : AC-3
    Format/Info : Audio Coding 3
    Mode extension : CM (complete main)
    Format settings, Endianness : Big
    Codec ID : A_AC3
    Duration : 26 min
    Bit rate mode : Constant
    Bit rate : 384 kb/s
    Channel(s) : 6 channels
    Channel positions : Front: L C R, Side: L R, LFE
    Sampling rate : 48.0 kHz
    Frame rate : 31.250 FPS (1536 spf)
    Compression mode : Lossy
    Delay relative to video : 70 ms
    Stream size : 72.7 MiB (7%)
    Title : NewStudio.TV
    Language : Russian
    Default : Yes
    Forced : No
    Audio #2
    ID : 3
    Format : AC-3
    Format/Info : Audio Coding 3
    Mode extension : CM (complete main)
    Format settings, Endianness : Big
    Codec ID : A_AC3
    Duration : 26 min
    Bit rate mode : Constant
    Bit rate : 384 kb/s
    Channel(s) : 6 channels
    Channel positions : Front: L C R, Side: L R, LFE
    Sampling rate : 48.0 kHz
    Frame rate : 31.250 FPS (1536 spf)
    Compression mode : Lossy
    Delay relative to video : 70 ms
    Stream size : 72.7 MiB (7%)
    Language : English
    Default : No
    Forced : No


    Скриншоты для ознакомления




    Онлайн видео Футболисты



    Футболисты/Игроки/Ballers (2016) HDTV [H.264/1080p-LQ] (сезон 1, серии 1 из 10) NewStudio (обновляемая)
    загрузка...
    Рейтинг →
     (голосов: 1, оценка 3/5, голосовать можно 1 раз )

    Другие торренты по теме:

  • Футболисты / Игроки / Ballers (2015) HDTVRip (сезон 1, серии 1-2 из 10) NewStudio (обновляемая) скачать через торрент бесплатно
  • Футболисты / Игроки / Ballers (2016) HDTVRip (сезон 2, серии 1 из 10) NewStudio (обновляемая)
  • Футболисты / Игроки / Ballers (2017) WEB-DL [H.264 / 1080p-LQ] (сезон 3, серии 1-10 из 10) Greb&CGC
  • Игроки / Футболисты / Ballers (2016) HDTV [H.264 / 720p-LQ] (сезон 2, серия 1 из 10) BaibaKo (обновляемая)


    • Комментарии (0):

      Информация

      Информация

        Посетители, находящиеся в группе Гости, не могут оставлять комментарии в данной новости.

        ↓ Меню




        ↓ Опрос

        Вы добавили сайт в закладки?
        Да
        Нет


        Top 10 за месяц (Фильмы)