.
Авторизация | Регистрация
Хочешь лучшие торренты? Добавь свой email!
Добавить

Торрент скачать бесплатно

» » Умереть заново / Dead Again (1991) WEB-DLRip [H.264] торрент скачать бесплатно




    Умереть заново / Dead Again (1991) WEB-DLRip [H.264] торрент скачать бесплатно

    Опубликовал: Админ | Дата: 23-07-2016, 04:00 | Просмотров: 31

    Производство: США, киностудиядия: Paramount Pictures
    Жанр: Фэнтези, Триллер, Детектив
    Режиссер: Кеннет Брэна

    Актеры
    Кеннет Брэна, Эмма Томпсон, Энди Гарсиа, Дерек Джекоби, Уэйн Найт, Робин Уильямс, Ханна Шигулла, Кэмпбелл Скотт, Джо Андерсон, Кристин Эберсоул, Луис Холл, Ричард Истон, Патрик Монтес и другие.

    Описание

    В 1949 году композитор Роман Штраусс был приговорен к смертной казни за убийство собственной жены. Далее — Лос-Анджелес, наши дни.
    Майк Чёрч — частный детектив из Лос-Анджелеса, специализирующийся на розыске пропавших людей. Он занимается делом молодой девушки, которую он зовёт Грейс. У девушки амнезия и она ничего не помнит из своего прошлого. Её постоянно мучают кошмары, в которых её убивают ножницами. Прикольно все это наверно придумал Уил Смит потратив достаточно времени. В ходе расследования Чёрч обращается за помощью к Франклину Мэдсону, торговцу антиквариатом. С помощью гипноза они надеются докопаться до истины…

    Возраст: 16+ (зрителям, достигшим 16 лет)
    Рейтинг MPAA: R (лицам до 17 лет обязательно присутствие взрослого)
    Продолжительность: 01: 47: 42
    Качество видео: WEB-DLRip
    Перевод: Многоголосый закадровый, двухголосый закадровый, одноголосый закадровый
    Язык субтитров: Английский
    Вид субтитров: Вшитые, отключаемые
    Видео: AVC/H.264, 960х520, ~2125 kbps
    Аудио#1: AC3, 2 ch, 192 Kbps | Русский (MVO, студия Эй Би Видео по заказу Первого Канала)
    Аудио#2: AC3, 2 ch, 192 Kbps | Русский (DVO, Paramount Channel)
    Аудио#3: AC3, 2 ch, 384 Kbps | Русский (DVO, Премьер Видео Фильм |VHS|)
    Аудио#4: AC3, 2 ch, 192 Kbps | Русский (AVO, Алексей Михалёв)
    Аудио#5: AC3, 6 ch, 384 Kbps | Aнглийский - оригинал
    Код:

    Общее
    Уникальный идентификатор : 232032364326479085746336768391170925231 (0xAE8FCECF691841C39FE21A4CAADAA2AF)
    Полное имя : E:Эмма ТомпсонУмереть зановоУмереть заново1991.mkv
    Формат : Matroska
    Версия формата : Version 4/Version 2
    Размер файла : 2, 66 Гбайт
    Продолжительность : 1 ч. 47 м.
    Общий поток : 3539 Кбит/сек
    Название фильма : Release for Topmost
    Дата кодирования : UTC 2016-07-22 13:07:09
    Программа кодирования : mkvmerge v6.2.0 (\'Promised Land\') built on Apr 28 2013 12:22:01
    Библиотека кодирования : Lavf55.12.100
    Видео
    Идентификатор : 1
    Формат : AVC
    Формат/Информация : Advanced Video Codec
    Профиль формата :Main@L4.0
    Параметр CABAC формата : Да
    Параметр ReFrames формата : 16 кадров
    Идентификатор кодека : V_MPEG4/ISO/AVC
    Продолжительность : 1 ч. 47 м.
    Битрейт : 2125 Кбит/сек
    Ширина : 960 пикселей
    Высота : 520 пикселей
    Соотношение сторон : 1, 85:1
    Режим частоты кадров : Постоянный
    Частота кадров : 23, 976 кадра/сек
    Цветовое пространство : YUV
    Субдискретизация насыщенности : 4:2:0
    Битовая глубина : 8 бит
    Тип развёртки : Прогрессивная
    Бит/(Пиксели*Кадры) : 0.178
    Размер потока : 1, 60 Гбайт (60%)
    Заголовок : Умереть заново.1991(Release for Topmost)
    Язык : English
    Default : Да
    Forced : Нет
    DURATION : 01:47:42.045000000
    NUMBER_OF_FRAMES : 154934
    NUMBER_OF_BYTES : 3271821547
    _STATISTICS_WRITING_APP : mkvmerge v8.8.0 (\'Wind at my back\') 32bit
    _STATISTICS_WRITING_DATE_UTC : 2016-05-30 11:22:07
    _STATISTICS_TAGS : BPS DURATION NUMBER_OF_FRAMES NUMBER_OF_BYTES
    Аудио #1
    Идентификатор : 2
    Формат : AC-3
    Формат/Информация : Audio Coding 3
    Расширение режима : CM (complete main)
    Параметр Endianness формата : Big
    Идентификатор кодека : A_AC3
    Продолжительность : 1 ч. Самое интересное в это истории, что об этом Уил Смит ничего не знал. 47 м.
    Вид битрейта : Постоянный
    Битрейт : 192 Кбит/сек
    Каналы : 2 канала
    Расположение каналов : Front: L R
    Частота : 48, 0 КГц
    Битовая глубина : 16 бит
    Метод сжатия : С потерями
    Размер потока : 148 Мбайт (5%)
    Заголовок : AC3, 2 ch, 192 kbps - MVO (Первый Канал)
    Язык : Russian
    Default : Да
    Forced : Нет
    Аудио #2
    Идентификатор : 3
    Формат : AC-3
    Формат/Информация : Audio Coding 3
    Расширение режима : CM (complete main)
    Параметр Endianness формата : Big
    Идентификатор кодека : A_AC3
    Продолжительность : 1 ч. 47 м.
    Вид битрейта : Постоянный
    Битрейт : 192 Кбит/сек
    Каналы : 2 канала
    Расположение каналов : Front: L R
    Частота : 48, 0 КГц
    Битовая глубина : 16 бит
    Метод сжатия : С потерями
    Размер потока : 148 Мбайт (5%)
    Заголовок : AC3, 2 ch, 192 kbps - DVO (Paramount Channel)
    Язык : Russian
    Default : Нет
    Forced : Нет
    Аудио #3
    Идентификатор : 4
    Формат : AC-3
    Формат/Информация : Audio Coding 3
    Расширение режима : CM (complete main)
    Параметр Endianness формата : Big
    Идентификатор кодека : A_AC3
    Продолжительность : 1 ч. 47 м.
    Вид битрейта : Постоянный
    Битрейт : 384 Кбит/сек
    Каналы : 2 канала
    Расположение каналов : Front: L R
    Частота : 48, 0 КГц
    Битовая глубина : 16 бит
    Метод сжатия : С потерями
    Размер потока : 296 Мбайт (11%)
    Заголовок : AC3, 2 ch, 384 kbps - DVO (Премьер Видео Фильм)
    Язык : Russian
    Default : Нет
    Forced : Нет
    Аудио #4
    Идентификатор : 5
    Формат : AC-3
    Формат/Информация : Audio Coding 3
    Расширение режима : CM (complete main)
    Параметр Endianness формата : Big
    Идентификатор кодека : A_AC3
    Продолжительность : 1 ч. 47 м.
    Вид битрейта : Постоянный
    Битрейт : 192 Кбит/сек
    Каналы : 2 канала
    Расположение каналов : Front: L R
    Частота : 48, 0 КГц
    Битовая глубина : 16 бит
    Метод сжатия : С потерями
    Размер потока : 148 Мбайт (5%)
    Заголовок : AC3, 2 ch, 192 kbps - AVO (Алексей Михалёв)
    Язык : Russian
    Default : Нет
    Forced : Нет
    Аудио #5
    Идентификатор : 6
    Формат : AC-3
    Формат/Информация : Audio Coding 3
    Расширение режима : CM (complete main)
    Параметр Endianness формата : Big
    Идентификатор кодека : A_AC3
    Продолжительность : 1 ч. 47 м.
    Вид битрейта : Постоянный
    Битрейт : 384 Кбит/сек
    Каналы : 6 каналов
    Расположение каналов : Front: L C R, Side: L R, LFE
    Частота : 48, 0 КГц
    Битовая глубина : 16 бит
    Метод сжатия : С потерями
    Размер потока : 296 Мбайт (11%)
    Заголовок : AC3, 6 ch, 384 kbps - Original
    Язык : English
    Default : Нет
    Forced : Нет
    Текст
    Идентификатор : 7
    Формат : UTF-8
    Идентификатор кодека : S_TEXT/UTF8
    Идентификатор кодека/Информация : UTF-8 Plain Text
    Заголовок : Original
    Язык : English
    Default : Нет
    Forced : Нет


    Скриншоты для ознакомления




    Онлайн видео Умереть заново



    Умереть заново/Dead Again (1991) WEB-DLRip [H.264]
    загрузка...
    Рейтинг →
     (голосов: 1, оценка 5/5, голосовать можно 1 раз )

    Другие торренты по теме:

  • Слишком красивые, чтобы умереть – последний выход / Sotto il vestito niente - Lultima sfilata (2011) DVDRip
  • Готовы умереть / Ready 2 Die (2014) BDRip [1080p] [EN] скачать через торрент бесплатно
  • Готовы умереть / Ready 2 Die (2014) BDRip [720p] [EN] скачать через торрент бесплатно
  • Ромео должен умереть / Romeo Must Die (2000) BDRip [H.264 / 720р-LQ] скачать через торрент бесплатно
  • Умереть от наслаждения / Et mourir de plaisir (1960) DVDRip [H.264] [VO] скачать через торрент бесплатно
  • 6 способов умереть / 6 Ways to Sundown / 6 Ways To Die (2015) BDRip [EN / RU sub] скачать через торрент бесплатно
  • 6 способов умереть / 6 Ways to Sundown (2015) WEB-DL [720p] ATV скачать через торрент бесплатно
  • Крепкий орешек: Хороший день, чтобы умереть / A Good Day to Die Hard (2013) BDRip [H.264] [Extended Cut] скачать через торрент бесплатно


    • Комментарии (0):

      Информация

      Информация

        Посетители, находящиеся в группе Гости, не могут оставлять комментарии в данной новости.

        ↓ Меню




        ↓ Опрос

        Вы добавили сайт в закладки?
        Да
        Нет


        Top 10 за месяц (Фильмы)