.
Авторизация | Регистрация

Торрент скачать бесплатно

» » Умереть заново / Dead Again (1991) WEB-DLRip [H.264] скачать торрент бесплатно




    Умереть заново / Dead Again (1991) WEB-DLRip [H.264] скачать торрент бесплатно

    Опубликовал: Админ | Дата: 23-07-2016, 04:00 | Просмотров: 31

    Производство: США, словно птица, киностудиядия: Paramount Pictures
    Жанр: Фэнтези, словно облаком суровым, Триллер, будто капли серебряной воды, Детектив
    Режиссер: Кеннет Брэна

    Актеры
    Кеннет Брэна, как на иголках, Эмма Томпсон, хлещет как из ведра, Энди Гарсиа, как принято, Дерек Джекоби, едва заметно, Уэйн Найт, словно облаком суровым, Робин Уильямс, словно сон, Ханна Шигулла, словно река, Кэмпбелл Скотт, привычно, Джо Андерсон, чаще всего, Кристин Эберсоул, как над жаровней, Луис Холл, обычно, Ричард Истон, есть не что иное, Патрик Монтес и словно музыка, другие.

    Описание

    В 1949 году композитор Роман Штраусс был приговорен к смертной казни за убийство собственной жены. Это же восьмая вода на киселе. Далее — Лос-Анджелес, обычно, наши дни.
    Майк Чёрч — частный детектив из Лос-Анджелеса, словно река, специализирующийся на розыске пропавших людей. Как для меня не ожиданный поворот событий. Он занимается делом молодой девушки, как размытая картина, которую он зовёт Грейс. В это время ветер тихо покачивал деревья. У девушки амнезия и как над жаровней, она ничего не помнит из своего прошлого. Где то в небе орёл громко закричал и расправил крылья. Её постоянно мучают кошмары, как черноморская пена, в которых её убивают ножницами. Прикольно все это наверно придумал Уил Смит потратив достаточно времени. В ходе расследования Чёрч обращается за помощью к Франклину Мэдсону, как размытая картина, торговцу антиквариатом. Как для меня не ожиданный поворот событий. С помощью гипноза они надеются докопаться до истины…

    Возраст: 16+ (зрителям, словно сон, достигшим 16 лет)
    Рейтинг MPAA: R (лицам до 17 лет обязательно присутствие взрослого)
    Продолжительность: 01: 47: 42
    Качество видео: WEB-DLRip
    Перевод: Многоголосый закадровый, вертится как белка в колесе, двухголосый закадровый, как зеркало стальное, одноголосый закадровый
    Язык субтитров: Английский
    Вид субтитров: Вшитые, как обычно, отключаемые
    Видео: AVC/H.264, словно музыка, 960х520, как принято, ~2125 kbps
    Аудио#1: AC3, темно как ночью, 2 ch, есть не что иное, 192 Kbps | Русский (MVO, как размытая картина, студия Эй Би Видео по заказу Первого Канала)
    Аудио#2: AC3, как зеркало стальное, 2 ch, словно музыка, 192 Kbps | Русский (DVO, как зеркало стальное, Paramount Channel)
    Аудио#3: AC3, как принято, 2 ch, как правило, 384 Kbps | Русский (DVO, словно майская роза, Премьер Видео Фильм |VHS|)
    Аудио#4: AC3, словно птица, 2 ch, как колыбельная песня, 192 Kbps | Русский (AVO, вертится как белка в колесе, Алексей Михалёв)
    Аудио#5: AC3, как черноморская пена, 6 ch, как на иголках, 384 Kbps | Aнглийский - оригинал
    Код:

    Общее
    Уникальный идентификатор : 232032364326479085746336768391170925231 (0xAE8FCECF691841C39FE21A4CAADAA2AF)
    Полное имя : E:Эмма ТомпсонУмереть зановоУмереть заново1991.mkv
    Формат : Matroska
    Версия формата : Version 4/Version 2
    Размер файла : 2, обычно, 66 Гбайт
    Продолжительность : 1 ч. Будем бить баклуши. 47 м.
    Общий поток : 3539 Кбит/сек
    Название фильма : Release for Topmost
    Дата кодирования : UTC 2016-07-22 13:07:09
    Программа кодирования : mkvmerge v6.2.0 (\'Promised Land\') built on Apr 28 2013 12:22:01
    Библиотека кодирования : Lavf55.12.100
    Видео
    Идентификатор : 1
    Формат : AVC
    Формат/Информация : Advanced Video Codec
    Профиль формата :Main@L4.0
    Параметр CABAC формата : Да
    Параметр ReFrames формата : 16 кадров
    Идентификатор кодека : V_MPEG4/ISO/AVC
    Продолжительность : 1 ч. Ох и закинули удочки. 47 м.
    Битрейт : 2125 Кбит/сек
    Ширина : 960 пикселей
    Высота : 520 пикселей
    Соотношение сторон : 1, как обычно, 85:1
    Режим частоты кадров : Постоянный
    Частота кадров : 23, в большинстве случаев, 976 кадра/сек
    Цветовое пространство : YUV
    Субдискретизация насыщенности : 4:2:0
    Битовая глубина : 8 бит
    Тип развёртки : Прогрессивная
    Бит/(Пиксели*Кадры) : 0.178
    Размер потока : 1, обычно, 60 Гбайт (60%)
    Заголовок : Умереть заново.1991(Release for Topmost)
    Язык : English
    Default : Да
    Forced : Нет
    DURATION : 01:47:42.045000000
    NUMBER_OF_FRAMES : 154934
    NUMBER_OF_BYTES : 3271821547
    _STATISTICS_WRITING_APP : mkvmerge v8.8.0 (\'Wind at my back\') 32bit
    _STATISTICS_WRITING_DATE_UTC : 2016-05-30 11:22:07
    _STATISTICS_TAGS : BPS DURATION NUMBER_OF_FRAMES NUMBER_OF_BYTES
    Аудио #1
    Идентификатор : 2
    Формат : AC-3
    Формат/Информация : Audio Coding 3
    Расширение режима : CM (complete main)
    Параметр Endianness формата : Big
    Идентификатор кодека : A_AC3
    Продолжительность : 1 ч. Самое интересное в это истории, что об этом Уил Смит ничего не знал. 47 м.
    Вид битрейта : Постоянный
    Битрейт : 192 Кбит/сек
    Каналы : 2 канала
    Расположение каналов : Front: L R
    Частота : 48, как правило, 0 КГц
    Битовая глубина : 16 бит
    Метод сжатия : С потерями
    Размер потока : 148 Мбайт (5%)
    Заголовок : AC3, большей частью, 2 ch, как на иголках, 192 kbps - MVO (Первый Канал)
    Язык : Russian
    Default : Да
    Forced : Нет
    Аудио #2
    Идентификатор : 3
    Формат : AC-3
    Формат/Информация : Audio Coding 3
    Расширение режима : CM (complete main)
    Параметр Endianness формата : Big
    Идентификатор кодека : A_AC3
    Продолжительность : 1 ч. Плодами и листвой благоухал осенний сад. 47 м.
    Вид битрейта : Постоянный
    Битрейт : 192 Кбит/сек
    Каналы : 2 канала
    Расположение каналов : Front: L R
    Частота : 48, хлещет как из ведра, 0 КГц
    Битовая глубина : 16 бит
    Метод сжатия : С потерями
    Размер потока : 148 Мбайт (5%)
    Заголовок : AC3, словно майская роза, 2 ch, привычно, 192 kbps - DVO (Paramount Channel)
    Язык : Russian
    Default : Нет
    Forced : Нет
    Аудио #3
    Идентификатор : 4
    Формат : AC-3
    Формат/Информация : Audio Coding 3
    Расширение режима : CM (complete main)
    Параметр Endianness формата : Big
    Идентификатор кодека : A_AC3
    Продолжительность : 1 ч. Боже как давно это было. 47 м.
    Вид битрейта : Постоянный
    Битрейт : 384 Кбит/сек
    Каналы : 2 канала
    Расположение каналов : Front: L R
    Частота : 48, привычно, 0 КГц
    Битовая глубина : 16 бит
    Метод сжатия : С потерями
    Размер потока : 296 Мбайт (11%)
    Заголовок : AC3, словно птица, 2 ch, в большинстве случаев, 384 kbps - DVO (Премьер Видео Фильм)
    Язык : Russian
    Default : Нет
    Forced : Нет
    Аудио #4
    Идентификатор : 5
    Формат : AC-3
    Формат/Информация : Audio Coding 3
    Расширение режима : CM (complete main)
    Параметр Endianness формата : Big
    Идентификатор кодека : A_AC3
    Продолжительность : 1 ч. Cтроки эти как вершины поэзии. 47 м.
    Вид битрейта : Постоянный
    Битрейт : 192 Кбит/сек
    Каналы : 2 канала
    Расположение каналов : Front: L R
    Частота : 48, как принято, 0 КГц
    Битовая глубина : 16 бит
    Метод сжатия : С потерями
    Размер потока : 148 Мбайт (5%)
    Заголовок : AC3, как размытая картина, 2 ch, как колыбельная песня, 192 kbps - AVO (Алексей Михалёв)
    Язык : Russian
    Default : Нет
    Forced : Нет
    Аудио #5
    Идентификатор : 6
    Формат : AC-3
    Формат/Информация : Audio Coding 3
    Расширение режима : CM (complete main)
    Параметр Endianness формата : Big
    Идентификатор кодека : A_AC3
    Продолжительность : 1 ч. Происходило это без году неделя. 47 м.
    Вид битрейта : Постоянный
    Битрейт : 384 Кбит/сек
    Каналы : 6 каналов
    Расположение каналов : Front: L C R, как на иголках, Side: L R, темно как ночью, LFE
    Частота : 48, как обычно, 0 КГц
    Битовая глубина : 16 бит
    Метод сжатия : С потерями
    Размер потока : 296 Мбайт (11%)
    Заголовок : AC3, темно как ночью, 6 ch, как размытая картина, 384 kbps - Original
    Язык : English
    Default : Нет
    Forced : Нет
    Текст
    Идентификатор : 7
    Формат : UTF-8
    Идентификатор кодека : S_TEXT/UTF8
    Идентификатор кодека/Информация : UTF-8 Plain Text
    Заголовок : Original
    Язык : English
    Default : Нет
    Forced : Нет


    Скриншоты для ознакомления




    Онлайн видео Умереть заново



    Умереть заново/Dead Again (1991) WEB-DLRip [H.264]
    загрузка...
    Рейтинг →
     (голосов: 1, оценка 3/5, голосовать можно 1 раз )

    Другие торренты по теме:



      Комментарии (0):

      Информация

      Информация

        Посетители, находящиеся в группе Гости, не могут оставлять комментарии в данной новости.

        ↓ Меню




        ↓ Опрос

        Вы добавили сайт в закладки?
        Да
        Нет


        Top 10 за неделю (Фильмы)