.
Авторизация | Регистрация
Хочешь лучшие торренты? Добавь свой email!
Добавить

Торрент скачать бесплатно

» » Пробуждение смерти / Wake of Death (2004) (Uncut Black Edition) BDRip [H.264 / 1080p-LQ] торрент скачать бесплатно




    Пробуждение смерти / Wake of Death (2004) (Uncut Black Edition) BDRip [H.264 / 1080p-LQ] торрент скачать бесплатно

    Опубликовал: Админ | Дата: 23-07-2016, 04:00 | Просмотров: 30

    Производство: Великобритания, Германия, Франция, ЮАР/Bauer Martinez Studios, UKFS, Frame Werk Produktion GmbH Co. KG
    Жанр: Боевик, Криминал
    Режиссер: Филиппе Мартинес

    Актеры
    Жан-Клод Ван Дамм, Саймон Ям, Филип Тан, Валери Тиан, Тони Шина, Клод Эрнандес, Лиза Кинг, Энтони Фриджон, Дэнни Кеог, Пьер Маре, Уоррик Грайр, Том Ву

    Описание

    Планы бывалого гангстера Бена Арчера уйти на покой внезапно срываются, когда его жена решает на время приютить юную беглянку из Азии. Арчеры не подозревают, что Ким - дочь могущественного босса китайской триады Сун Куана, на поиски которой он бросил своих головорезов.
    Обнаружив ее следы в Америке, Сун Куан устраняет всех на своем пути, и хотя Ким и сын Арчера спасаются, его супруга погибает. Отныне в жизни Бена есть единственная цель - беспощадная месть...

    Возраст: 18+ (зрителям, достигшим 18 лет. Богатый выбор, сказал кто то из толпы, к чему не понятно. запрещено для детей)
    Рейтинг MPAA: R (лицам до 17 лет обязательно присутствие взрослого)
    Релиз от: R.G. Goldenshara
    Продолжительность: 01: 30: 34
    Качество видео: BDRip (1080p-LQ)
    Перевод: Многоголосый закадровый
    Язык субтитров: Английский
    Вид субтитров: Вшитые (отключаемые)
    Навигация по главам: есть
    Видео: AVC/H.264, 1920x1080 (16: 9), ~6460 kbps, 23, 976 fps
    Аудио: AC3, 6 ch, 48 kHz, 448 kbps
    Код:

    General
    Unique ID : 237717159250942739392360385710968806709 (0xB2D6A8D6EEA871D1A40A0D5FC36C1D35)
    Complete name : E:Мои рипыПробуждение смерти.2004.BDRip.1080p.MVO.mkv
    Format : Matroska
    Format version : Version 4/Version 2
    File size : 4.37 GiB
    Duration : 1h 30mn
    Overall bit rate : 6 907 Kbps
    Movie name : Wake of Death 2004 - NovaLan
    Encoded date : UTC 2016-06-10 14:36:38
    Writing application : mkvmerge v6.3.0 (\'You can\'t stop me!\') built on Jun 28 2013 20:09:41
    Writing library : libebml v1.3.0 + libmatroska v1.4.0
    Video
    ID : 1
    Format : AVC
    Format/Info : Advanced Video Codec
    Format profile :High@L4.1
    Format settings, CABAC : Yes
    Format settings, ReFrames : 4 frames
    Codec ID : V_MPEG4/ISO/AVC
    Duration : 1h 30mn
    Bit rate : 6 460 Kbps
    Width : 1 920 pixels
    Height : 1 080 pixels
    Display aspect ratio : 16:9
    Frame rate mode : Constant
    Frame rate : 23.976 fps
    Color space : YUV
    Chroma subsampling : 4:2:0
    Bit depth : 8 bits
    Scan type : Progressive
    Bits/(Pixel*Frame) : 0.130
    Stream size : 4.00 GiB (92%)
    Writing library : x264 core 130 r2273 b3065e6
    Encoding settings : cabac=1/ref=4/deblock=1:-3:-3/analyse=0x3:0x133/me=umh/subme=11/psy=1/psy_rd=1.00:0.15/mixed_ref=1/me_range=48/chroma_me=1/trellis=2/8x8dct=1/cqm=0/deadzone=21, 11/fast_pskip=0/chroma_qp_offset=-4/threads=6/lookahead_threads=1/sliced_threads=0/nr=0/decimate=1/interlaced=0/bluray_compat=0/constrained_intra=0/bframes=8/b_pyramid=2/b_adapt=2/b_bias=0/direct=2/weightb=1/open_gop=0/weightp=2/keyint=250/keyint_min=23/scenecut=40/intra_refresh=0/rc=2pass/mbtree=0/bitrate=6460/ratetol=1.0/qcomp=0.80/qpmin=0/qpmax=69/qpstep=4/cplxblur=20.0/qblur=0.5/ip_ratio=1.40/pb_ratio=1.30/aq=2:1.00
    Language : English
    Default : Yes
    Forced : No
    Color primaries : Generic film
    Matrix coefficients : YCgCo
    Audio
    ID : 2
    Format : AC-3
    Format/Info : Audio Coding 3
    Mode extension : CM (complete main)
    Format settings, Endianness : Big
    Codec ID : A_AC3
    Duration : 1h 30mn
    Bit rate mode : Constant
    Bit rate : 448 Kbps
    Channel(s) : 6 channels
    Channel positions : Front: L C R, Side: L R, LFE
    Sampling rate : 48.0 KHz
    Bit depth : 16 bits
    Compression mode : Lossy
    Stream size : 290 MiB (6%)
    Title : MVO
    Language : Russian
    Default : Yes
    Forced : No
    Text
    ID : 3
    Format : UTF-8
    Codec ID : S_TEXT/UTF8
    Codec ID/Info : UTF-8 Plain Text
    Language : English
    Default : No
    Forced : No
    Menu
    00:00:00.000 : en:00:00:00.000
    00:07:17.269 : en:00:07:17.269
    00:15:56.581 : en:00:15:56.581
    00:23:56.018 : en:00:23:56.018
    00:32:23.942 : en:00:32:23.942
    00:40:51.239 : en:00:40:51.239
    00:47:15.248 : en:00:47:15.248
    00:55:19.106 : en:00:55:19.106
    01:02:47.472 : en:01:02:47.472
    01:10:08.453 : en:01:10:08.453
    01:16:47.603 : en:01:16:47.603
    01:23:52.360 : en:01:23:52.360


    Скриншоты для ознакомления




    Онлайн видео Пробуждение смерти



    Пробуждение смерти/Wake of Death (2004) (Uncut Black Edition) BDRip [H.264/1080p-LQ]
    загрузка...
    Рейтинг →
     (голосов: 1, оценка 5/5, голосовать можно 1 раз )

    Другие торренты по теме:

  • Ужас Амитивилля: Пробуждение / Amityville: The Awakening (2017) HDRip
  • Звездные войны: Эпизод 7 – Пробуждение силы / Star Wars: Episode VII - The Force Awakens (2015) WEBRip [1080p] [Тизер]
  • Другой мир: Пробуждение / Underworld: Awakening (2012) BDRip [AVO] скачать через торрент бесплатно
  • 3вёздные войны: Пробуждение силы / Star Wars: Episode VII - The Force Awakens (2015) WEBRip [1080р] [Трейлер] скачать через торрент бесплатно
  • Звездные войны: Эпизод 7 – Пробуждение силы / Star Wars: Episode VII - The Force Awakens (2015) DCPRip [2K] [Hi10P, Hi444PP] [Трейлер B] скачать через торрент бесплатно
  • Омен 4: Пробуждение / Omen IV: The Awakening (1991) DVDRip [H.264] скачать через торрент бесплатно
  • Dragon Age: Origins Awakening / Dragon Age: Начало Пробуждение (2010) [Xbox360] [RegionFree] [FreeBoot] [Unofficial] [Ru] | R.G. DShock скачать через торрент бесплатно
  • Звёздные войны: Пробуждение силы / Star Wars: Episode VII - The Force Awakens (2015) WEBRip [H.264 / 1080p] [Трейлер] [EN] скачать через торрент бесплатно


    • Комментарии (0):

      Информация

      Информация

        Посетители, находящиеся в группе Гости, не могут оставлять комментарии в данной новости.

        ↓ Меню




        ↓ Опрос

        Вы добавили сайт в закладки?
        Да
        Нет


        Top 10 за месяц (Фильмы)