.
Авторизация | Регистрация
Хочешь лучшие торренты? Добавь свой email!
Добавить

Торрент скачать бесплатно

» » Футболисты / Игроки / Ballers (2016) HDTVRip (сезон 2, серии 1 из 10) NewStudio (обновляемая) торрент скачать бесплатно




    Футболисты / Игроки / Ballers (2016) HDTVRip (сезон 2, серии 1 из 10) NewStudio (обновляемая) торрент скачать бесплатно

    Опубликовал: Админ | Дата: 23-07-2016, 04:00 | Просмотров: 114

    Производство: США/7 Bucks Entertainment, Closest to the Hole Productions, Film 44
    Жанр: драма, комедия, спорт
    Режиссер: Джулиан Фарино, Саймон Селлан Джоунс, Питер Берг

    Актеры
    Дуэйн Джонсон, Роб Кордри, Джон Дэвид Вашингтон, Омар Бенсон Миллер, Донован В. Картер, Трой Гэрити, Жасмин Саймон, Эллен Маргарит Калливан, Дьюли Хилл и др.

    Описание

    Новый совместный проект Дуэйна Скалы Джонсона, Марка Уолберга и режиссера Хэнкока Питера Берга - комедийная драма НВО о жизни профессиональных игроков в американский футбол. Они зарабатывают миллионы, на них молятся фанаты, их показывают в новостях. Но помимо многочасовых тренировок, пятничных игр и вспышек фотокамер у них есть друзья, семьи и, конечно, проблемы – почти такие же, как у обычных людей. Вилами по воде писано, сказал кто то из толпы, к чему не понятно. С девушкой помириться - это, знаете ли, не тачдаун оформить.

    Продолжительность: ~00: 30: 00 серия
    Качество видео: HDTVRip
    Перевод: Многоголосый закадровый, профессиональный -NewStudio
    Автор перевода: Юля Мейер
    Видео: XviD, 720x400 (16: 9), ~1545 kb/s
    Аудио Rus: MPEG Layer 3, 48, 0 kHz, 2 ch, 128 kb/s — многоголосый закадровый
    Аудио Eng: MPEG Layer 3, 48, 0 kHz, 2 ch, 128 kb/s — оригинал
    Код:

    Общее
    Полное имя : D:Футболисты (сезон любимого сериала 2) Ballers (2016) HDTVRip - NewStudioBallers.S02E01.HDTVRip.Rus.Eng.DV.NewStudio.avi
    Формат : AVI
    Формат/Информация : Audio Video Interleave
    Размер файла : 344 Мбайт
    Продолжительность : 26 м.
    Общий поток : 1815 Кбит/сек
    Название фильма : Ballers.S02E01.HDTVRip.Rus.Eng.DV.NewStudio/NNM-Club
    Программа кодирования : VirtualDubModRus 1.5.10.2 (build 2542/release)
    Библиотека кодирования : VirtualDubMod build 2542/release
    Видео
    Идентификатор : 0
    Формат : MPEG-4 Visual
    Профиль формата : Advanced Simple@L5
    Параметр BVOP формата : 2
    Параметр QPel формата : Да
    Параметр GMC формата : Без точки перехода
    Параметр матрицы формата : Default (MPEG)
    Режим смешивания : Сжатый битовый поток
    Идентификатор кодека : XVID
    Идентификатор кодека/Подсказка : XviD
    Продолжительность : 26 м.
    Битрейт : 1545 Кбит/сек
    Ширина : 720 пикселей
    Высота : 400 пикселей
    Соотношение сторон : 16:9
    Частота кадров : 23, 976 (23976/1000) кадра/сек
    Цветовое пространство : YUV
    Субдискретизация насыщенности : 4:2:0
    Битовая глубина : 8 бит
    Тип развёртки : Прогрессивная
    Метод сжатия : С потерями
    Бит/(Пиксели*Кадры) : 0.224
    Размер потока : 293 Мбайт (85%)
    Библиотека кодирования : XviD 73
    Аудио #1
    Идентификатор : 1
    Формат : MPEG Audio
    Версия формата : Version 1
    Профиль формата : Layer 3
    Режим : Joint stereo
    Расширение режима : MS Stereo
    Идентификатор кодека : 55
    Идентификатор кодека/Подсказка : MP3
    Продолжительность : 26 м.
    Вид битрейта : Постоянный
    Битрейт : 128 Кбит/сек
    Каналы : 2 канала
    Частота : 48, 0 КГц
    Метод сжатия : С потерями
    Размер потока : 24, 2 Мбайт (7%)
    Выравнивание : Соединение по промежуткам
    Продолжительность промежутка : 42 мс. Прикольно все это наверно придумал Уил Смит потратив достаточно времени. (1, 00 видеокадр)
    Время предзагрузки промежутка : 504 мс.
    Аудио #2
    Идентификатор : 2
    Формат : MPEG Audio
    Версия формата : Version 1
    Профиль формата : Layer 3
    Режим : Joint stereo
    Расширение режима : MS Stereo
    Идентификатор кодека : 55
    Идентификатор кодека/Подсказка : MP3
    Продолжительность : 26 м.
    Вид битрейта : Постоянный
    Битрейт : 128 Кбит/сек
    Каналы : 2 канала
    Частота : 48, 0 КГц
    Метод сжатия : С потерями
    Размер потока : 24, 2 Мбайт (7%)
    Выравнивание : Соединение по промежуткам
    Продолжительность промежутка : 42 мс. (1, 00 видеокадр)
    Время предзагрузки промежутка : 504 мс.


    Скриншоты для ознакомления




    Онлайн видео Футболисты



    Футболисты/Игроки/Ballers (2016) HDTVRip (сезон 2, серии 1 из 10) NewStudio (обновляемая)
    загрузка...
    Рейтинг →
     (голосов: 1, оценка 5/5, голосовать можно 1 раз )

    Другие торренты по теме:

  • Футболисты / Игроки / Ballers (2015) HDTVRip (сезон 1, серии 1-2 из 10) NewStudio (обновляемая) скачать через торрент бесплатно
  • Футболисты / Игроки / Ballers (2016) HDTV [H.264 / 1080p-LQ] (сезон 1, серии 1 из 10) NewStudio (обновляемая)
  • Футболисты / Игроки / Ballers (2017) WEB-DL [H.264 / 1080p-LQ] (сезон 3, серии 1-10 из 10) Greb&CGC
  • Игроки / Футболисты / Ballers (2016) HDTV [H.264 / 720p-LQ] (сезон 2, серия 1 из 10) BaibaKo (обновляемая)


    • Комментарии (0):

      Информация

      Информация

        Посетители, находящиеся в группе Гости, не могут оставлять комментарии в данной новости.

        ↓ Меню




        ↓ Опрос

        Вы добавили сайт в закладки?
        Да
        Нет


        Top 10 за месяц (Фильмы)