.
Авторизация | Регистрация
Хочешь лучшие торренты? Добавь свой email!
Добавить

Торрент скачать бесплатно

» » Репортерша / Whiskey Tango Foxtrot (2016) BDRip [H.264] торрент скачать бесплатно




    Репортерша / Whiskey Tango Foxtrot (2016) BDRip [H.264] торрент скачать бесплатно

    Опубликовал: Админ | Дата: 22-07-2016, 04:00 | Просмотров: 72

    Производство: США/Broadway Video, Little Stranger, Paramount Pictures
    Жанр: Военный, Комедия
    Режиссер: Гленн Фикарра, Джон Рекуа
    Продюсер: Йен Брайс, Тина Фей, Лорн Майклз

    Актеры
    Тина Фей, Марго Робби, Мартин Фриман, Альфред Молина, Кристофер Эбботт, Билли Боб Торнтон, Николас Браун, Стивен Пикок, Шейла Ванд, Эван Йоникит

    Описание

    Осознав, что она завязла в повседневной рутине, репортер Ким Бейкер решает встряхнуться и сменить кабинетные будни в Нью-Йорке на опасную работу в Афганистане. Вдали от дома и полностью за пределами собственной зоны комфорта, шокированная местными обычаями Ким заводит дружбу с рискованной репортершей Таней Вандерпоел, суровым Полковником и обаятельным фотожурналистом, которые помогают ей освоиться в этом сумасшедшем новом мире. Окруженная хаосом, Ким открывает свое истинное призвание - рисковать всем для поиска очередной главной новости.

    Возраст: 18+ (зрителям, достигшим 18 лет. запрещено для детей)
    Рейтинг MPAA: R (лицам до 17 лет обязательно присутствие взрослого)
    Дата мировой премьеры: 4 марта 2016
    Дата российской премьеры: 15 сентября 2016, Новый Диск
    Дата выхода DVD/Blu-ray релиза: 15 сентября 2016, Новый Диск
    Продолжительность: 01: 51: 48
    Качество видео: BDRip (H.264)
    Перевод: Дублированный (iTunes)
    Вид субтитров: Вшитые отключаемые
    Язык субтитров: Русский, Английский
    Видео: AVC/H.264, 1152x648, (16: 9), 2 769 Kbps, 23, 976 fps
    Аудио: AC3, 6 ch, 384 kbps - Русский
    Аудио: AC3, 6 ch, 384 kbps - Английский
    Код:

    Format : Matroska
    Format version : Version 4/Version 2
    File size : 2.82 GiB
    Duration : 1h 51mn
    Overall bit rate : 3 609 Kbps
    Movie name : Репортерша/Whiskey Tango Foxtrot (2016) :: AFM ::
    Encoded date : UTC 2016-07-21 15:48:41
    Writing application : mkvmerge v8.3.0 (\'Over the Horizon\') 32bit
    Writing library : libebml v1.3.1 + libmatroska v1.4.2
    Video
    ID : 1
    Format : AVC
    Format/Info : Advanced Video Codec
    Format profile :High@L4.1
    Format settings, CABAC : Yes
    Format settings, ReFrames : 11 frames
    Codec ID : V_MPEG4/ISO/AVC
    Duration : 1h 51mn
    Bit rate : 2 769 Kbps
    Width : 1 152 pixels
    Height : 648 pixels
    Display aspect ratio : 16:9
    Frame rate mode : Constant
    Frame rate : 23.976 fps
    Color space : YUV
    Chroma subsampling : 4:2:0
    Bit depth : 8 bits
    Scan type : Progressive
    Bits/(Pixel*Frame) : 0.155
    Stream size : 2.16 GiB (77%)
    Title : BDRip by AFM [ .org]
    Writing library : x264 core 148 r2705+54 9f484c1 t_mod_Custom [8-bit@all X86_64]
    Encoding settings : cabac=1/ref=11/deblock=1:-2:-2/analyse=0x3:0x113/me=umh/subme=10/psy=1/fade_compensate=0.00/psy_rd=1.00:0.00/mixed_ref=1/me_range=32/chroma_me=1/trellis=2/8x8dct=1/cqm=0/deadzone=21, 11/fast_pskip=0/chroma_qp_offset=-2/threads=6/lookahead_threads=1/sliced_threads=0/nr=0/decimate=1/interlaced=0/bluray_compat=0/constrained_intra=0/fgo=0/bframes=14/b_pyramid=2/b_adapt=2/b_bias=0/direct=1/weightb=1/open_gop=0/weightp=2/keyint=250/keyint_min=23/scenecut=40/intra_refresh=0/rc_lookahead=40/rc=crf/mbtree=0/crf=18.8000/qcomp=0.65/qpmin=0:0:0/qpmax=69:69:69/qpstep=4/vbv_maxrate=50000/vbv_bufsize=62500/crf_max=0.0/nal_hrd=none/filler=0/ip_ratio=1.35/pb_ratio=1.30/aq=3:0.80/aq-sensitivity=10.00/aq-factor=1.00:1.00:1.00/aq2=0/aq3=0
    Language : English
    Default : Yes
    Forced : No
    Audio #1
    ID : 2
    Format : AC-3
    Format/Info : Audio Coding 3
    Mode extension : CM (complete main)
    Format settings, Endianness : Big
    Codec ID : A_AC3
    Duration : 1h 51mn
    Bit rate mode : Constant
    Bit rate : 384 Kbps
    Channel(s) : 6 channels
    Channel positions : Front: L C R, Side: L R, LFE
    Sampling rate : 48.0 KHz
    Compression mode : Lossy
    Stream size : 307 MiB (11%)
    Title : Dub, AC3 5.1 ~384 kbps
    Language : Russian
    Default : Yes
    Forced : No
    Audio #2
    ID : 3
    Format : AC-3
    Format/Info : Audio Coding 3
    Mode extension : CM (complete main)
    Format settings, Endianness : Big
    Codec ID : A_AC3
    Duration : 1h 51mn
    Bit rate mode : Constant
    Bit rate : 384 Kbps
    Channel(s) : 6 channels
    Channel positions : Front: L C R, Side: L R, LFE
    Sampling rate : 48.0 KHz
    Compression mode : Lossy
    Stream size : 307 MiB (11%)
    Title : Original, AC3 5.1 ~384 kbps
    Language : English
    Default : No
    Forced : No
    Text #1
    ID : 4
    Format : UTF-8
    Codec ID : S_TEXT/UTF8
    Codec ID/Info : UTF-8 Plain Text
    Title : forced
    Language : Russian
    Default : Yes
    Forced : No
    Text #2
    ID : 5
    Format : UTF-8
    Codec ID : S_TEXT/UTF8
    Codec ID/Info : UTF-8 Plain Text
    Language : Russian
    Default : No
    Forced : No
    Text #3
    ID : 6
    Format : UTF-8
    Codec ID : S_TEXT/UTF8
    Codec ID/Info : UTF-8 Plain Text
    Title : forced
    Language : English
    Default : No
    Forced : No
    Text #4
    ID : 7
    Format : UTF-8
    Codec ID : S_TEXT/UTF8
    Codec ID/Info : UTF-8 Plain Text
    Language : English
    Default : No
    Forced : No
    Text #5
    ID : 8
    Format : UTF-8
    Codec ID : S_TEXT/UTF8
    Codec ID/Info : UTF-8 Plain Text
    Title : SDH
    Language : English
    Default : No
    Forced : No
    Menu
    00:00:00.000 : en:Chapter 01
    00:07:46.466 : en:Chapter 02
    00:13:47.908 : en:Chapter 03
    00:23:38.834 : en:Chapter 04
    00:30:28.660 : en:Chapter 05
    00:37:27.036 : en:Chapter 06
    00:45:36.775 : en:Chapter 07
    00:55:40.585 : en:Chapter 08
    01:05:02.106 : en:Chapter 09
    01:12:14.453 : en:Chapter 10
    01:17:50.332 : en:Chapter 11
    01:24:56.006 : en:Chapter 12
    01:34:04.970 : en:Chapter 13
    01:39:50.649 : en:Chapter 14
    01:51:48.118 : en:Chapter 15


    Скриншоты для ознакомления




    Онлайн видео Репортерша



    Репортерша/Whiskey Tango Foxtrot (2016) BDRip [H.264]
    загрузка...
    Рейтинг →
     (голосов: 1, оценка 5/5, голосовать можно 1 раз )

    Другие торренты по теме:

  • Репортерша / Whiskey Tango Foxtrot (2016) WEB-DL [H.264 / 1080p-LQ] [EN / EN Sub]
  • Репортерша / Whiskey Tango Foxtrot (2016) HDRip
  • Репортерша / Whiskey Tango Foxtrot (2016) BDRip [H.264 / 1080p]
  • Репортерша / Whiskey Tango Foxtrot (2016) BDRip [H.264]
  • Репортерша / Whiskey Tango Foxtrot (2016) BDRip [H.264 / 1080p-LQ]
  • Репортерша / Whiskey Tango Foxtrot (2016) HDRip [H.264] [MP4|640x480@852x480]
  • Репортерша / Whiskey Tango Foxtrot (2016) BDRip [1080p] ATV
  • Репортерша / Whiskey Tango Foxtrot (2016) BDRemux [H.264 / 1080p]


    • Комментарии (0):

      Информация

      Информация

        Посетители, находящиеся в группе Гости, не могут оставлять комментарии в данной новости.

        ↓ Меню




        ↓ Опрос

        Вы добавили сайт в закладки?
        Да
        Нет


        Top 10 за месяц (Фильмы)