.
Авторизация | Регистрация
Хочешь лучшие торренты? Добавь свой email!
Добавить

Торрент скачать бесплатно

» » Визави / Vis a vis (2015) HDTVRip [H.264 / 720p-LQ] (сезон 1, серии 1-8 из 11) SunshineStudio (обновляемая) торрент скачать бесплатно




    Визави / Vis a vis (2015) HDTVRip [H.264 / 720p-LQ] (сезон 1, серии 1-8 из 11) SunshineStudio (обновляемая) торрент скачать бесплатно

    Опубликовал: Админ | Дата: 22-07-2016, 04:00 | Просмотров: 49

    Производство: Испания
    Жанр: триллер, драма
    Режиссер: Хесус Кольменар, Хесус Родриго, Сандра Гальего

    Актеры
    Мэгги Сивантос, Роберто Энрикес, Кристина Пласас, Берта Васкес, Альба Флорес, Инма Куэвас, Мария Исабель Диас, Рамиро Блас, Альберто Веласко, Марта Аледо и др.

    Описание

    В центре сюжета молодая, наивная девушка, которую подставили в преступлении. Теперь ей придется не просто сесть в тюрьму, а выжить, ведь каждый день пребывания там, может стать для неё последним.

    Релиз от: SunshineStudio
    Продолжительность: ~ 01: 14: 00 серия
    Качество видео: HDTVRip
    Перевод: Двуголосый закадровый, любительский - SunshineStudio
    Реклама: присутствуют аудио, видео вставки рекламы.
    Видео: AVC/H.264, 1280x720 (16: 9), ~1700 Кбит/сек
    Аудио: AC3, 2 канала, 192 Кбит/сек
    Код:

    Общее
    Уникальный идентификатор : 244685065952236013219714619051451848650 (0xB814A129F0348FB03B8B6005A42F97CA)
    Полное имя : H:СериалыВизавиVis.a.vis.720рVis.a.vis.S01E01.720р.SunshineStudio.mkv
    Формат : Matroska
    Версия формата : Version 4/Version 2
    Размер файла : 999 Мбайт
    Продолжительность : 1 ч. 14 м.
    Общий поток : 1880 Кбит/сек
    Программа кодирования : Lavf56.25.101
    Библиотека кодирования : Lavf56.25.101/Lavf56.25.101
    Видео
    Идентификатор : 1
    Формат : AVC
    Формат/Информация : Advanced Video Codec
    Профиль формата :Baseline@L3.1
    Параметр CABAC формата : Нет
    Параметр ReFrames формата : 1 кадр
    Идентификатор кодека : V_MPEG4/ISO/AVC
    Продолжительность : 1 ч. 14 м.
    Битрейт : 1700 Кбит/сек
    Ширина : 1280 пикселей
    Высота : 720 пикселей
    Соотношение сторон : 16:9
    Режим частоты кадров : Постоянный
    Частота кадров : 25, 000 кадров/сек
    Цветовое пространство : YUV
    Субдискретизация насыщенности : 4:2:0
    Битовая глубина : 8 бит
    Тип развёртки : Прогрессивная
    Бит/(Пиксели*Кадры) : 0.074
    Размер потока : 878 Мбайт (88%)
    Библиотека кодирования : x264 core 144 r2533 c8a773e
    Настройки программы : cabac=0/ref=1/deblock=1:0:0/analyse=0x1:0x111/me=hex/subme=7/psy=1/psy_rd=1.00:0.00/mixed_ref=0/me_range=16/chroma_me=1/trellis=1/8x8dct=0/cqm=0/deadzone=21, 11/fast_pskip=1/chroma_qp_offset=-2/threads=3/lookahead_threads=1/sliced_threads=0/nr=0/decimate=1/interlaced=0/bluray_compat=0/constrained_intra=0/bframes=0/weightp=0/keyint=250/keyint_min=25/scenecut=40/intra_refresh=0/rc_lookahead=40/rc=abr/mbtree=1/bitrate=1700/ratetol=1.0/qcomp=0.60/qpmin=10/qpmax=51/qpstep=4/ip_ratio=1.41/aq=1:1.00
    Default : Да
    Forced : Нет
    Аудио
    Идентификатор : 2
    Формат : AC-3
    Формат/Информация : Audio Coding 3
    Расширение режима : CM (complete main)
    Параметр Endianness формата : Big
    Идентификатор кодека : A_AC3
    Продолжительность : 1 ч. 14 м.
    Вид битрейта : Постоянный
    Битрейт : 192 Кбит/сек
    Каналы : 2 канала
    Расположение каналов : Front: L R
    Частота : 48, 0 КГц
    Частота кадров : 31, 250 кадров/сек (1536 spf)
    Битовая глубина : 32 бит
    Метод сжатия : С потерями
    Задержка видео : -85 мс.
    Размер потока : 102 Мбайт (10%)
    Библиотека кодирования : Lavc56.41.100 ac3
    Default : Да
    Forced : Нет


    Скриншоты для ознакомления




    Онлайн видео Визави



    Визави/Vis a vis (2015) HDTVRip [H.264/720p-LQ] (сезон 1, серии 1-8 из 11) SunshineStudio (обновляемая)
    загрузка...
    Рейтинг →
     (голосов: 1, оценка 4/5, голосовать можно 1 раз )

    Другие торренты по теме:

  • Визави / Vis a vis (2016) HDTVRip (сезон 2, серии 1-13 из 13) Sunshine Studio


    • Комментарии (0):

      Информация

      Информация

        Посетители, находящиеся в группе Гости, не могут оставлять комментарии в данной новости.

        ↓ Меню




        ↓ Опрос

        Вы добавили сайт в закладки?
        Да
        Нет


        Top 10 за месяц (Фильмы)