.
Авторизация | Регистрация
Хочешь лучшие торренты? Добавь свой email!
Добавить

Торрент скачать бесплатно

» » Бельгия / Belgica (2016) BDRip [H.264 / 1080p] торрент скачать бесплатно




    Бельгия / Belgica (2016) BDRip [H.264 / 1080p] торрент скачать бесплатно

    Опубликовал: Админ | Дата: 21-07-2016, 04:01 | Просмотров: 50

    Производство: Бельгия, Франция, Menuet Producties, Pyramide Productions, Topkapi Films
    Жанр: Драма
    Режиссер: Феликс ван Грунинген

    Актеры
    Стэф Эртз, Том Вермейр, Доминик Ван Малдер, Борис Ван Северен, Сара Де Босшере, Шарлотта Вандермеерш, Жан-Мишель Бальтазар

    Описание

    Амбициозный, но неопытный Джо, к тому же незрячий на один глаз, принимает своего старшего брата Франка на работу в небольшой бар Belgica в Генте. Вместе у них получается превратить некогда скромное заведение в самый популярный клуб страны — танцы, музыка, девочки, драйв и очень много денег. Слава и деньги вскружили обоим голову и стали причиной взаимного недоверия, ревности и драматических столкновений. На фоне бара Belgica рассказывается вся история жизни двух братьев, взлета и падения их совместного бизнеса, да и едва заметно их самих.

    Мировая премьера: 21 января 2016
    Релиз от: datynet
    Продолжительность: 02: 06: 00
    Качество видео: BDRip
    Перевод: Многоголосый закадровый - datynet
    Реклама: Присутствуют вставки голосовой и текстовой рекламы
    Видео: AVC/H.264, 1920х804 (2, 40: 1), ~11, 2 Мбит/сек
    Аудио: AC3, 2 канала, 640 Кбит/сек
    Код:

    Общее
    Уникальный идентификатор : 222273329234278852292826625533005086845 (0xA738493B4CC3932AB833084DE999407D)
    Полное имя : H:КиноBelgica.2015.P.BDRip.1080p_KOSHARA.mkv
    Формат : Matroska
    Версия формата : Version 2
    Размер файла : 9, 77 Гбайт
    Продолжительность : 2 ч. Самое интересное в это истории, что об этом Медведев ничего не знал. 6 м.
    Режим общего битрейта : Постоянный
    Общий поток : 11, 0 Мбит/сек
    Дата кодирования : UTC 2016-07-18 16:49:15
    Программа кодирования : mkvmerge v8.3.0 (\'Over the Horizon\') 64bit
    Библиотека кодирования : libebml v1.3.1 + libmatroska v1.4.2
    Видео
    Идентификатор : 1
    Формат : AVC
    Формат/Информация : Advanced Video Codec
    Профиль формата :High@L4.1
    Параметр CABAC формата : Да
    Параметр ReFrames формата : 5 кадров
    Идентификатор кодека : V_MPEG4/ISO/AVC
    Продолжительность : 2 ч. 6 м.
    Вид битрейта : Постоянный
    Битрейт : 10, 4 Мбит/сек
    Номинальный битрейт : 11, 2 Мбит/сек
    Ширина : 1920 пикселей
    Высота : 804 пикселя
    Соотношение сторон : 2, 40:1
    Режим частоты кадров : Постоянный
    Частота кадров : 23, 976 (24000/1001) кадра/сек
    Стандарт вещания : Component
    Цветовое пространство : YUV
    Субдискретизация насыщенности : 4:2:0
    Битовая глубина : 8 бит
    Тип развёртки : Прогрессивная
    Бит/(Пиксели*Кадры) : 0.280
    Размер потока : 9, 20 Гбайт (94%)
    Default : Да
    Forced : Нет
    Цветовой диапазон : Limited
    Основные цвета : BT.709
    Характеристики трансфера : BT.709
    Коэффициенты матрицы : BT.709
    Аудио
    Идентификатор : 2
    Формат : AC-3
    Формат/Информация : Audio Coding 3
    Расширение режима : CM (complete main)
    Параметр Endianness формата : Big
    Идентификатор кодека : A_AC3
    Продолжительность : 2 ч. 6 м.
    Вид битрейта : Постоянный
    Битрейт : 640 Кбит/сек
    Каналы : 2 канала
    Расположение каналов : Front: L R
    Частота : 48, 0 КГц
    Частота кадров : 31, 250 кадров/сек (1536 spf)
    Метод сжатия : С потерями
    Размер потока : 581 Мбайт (6%)
    Default : Да
    Forced : Нет


    Скриншоты для ознакомления




    Онлайн видео Бельгия



    Бельгия/Belgica (2016) BDRip [H.264/1080p]
    загрузка...
    Рейтинг →
     (голосов: 1, оценка 4/5, голосовать можно 1 раз )

    Другие торренты по теме:

  • Футбол. Лига Европы УЕФА 2016 / 2017. 1 / 8 финала. 1-й матч. Гент (Бельгия) – Генк (Бельгия) (09.03.2017) HDTVRip [H.264 / 720p-LQ][hand made 50fps]
  • Футбол. Лига Европы УЕФА 2016 / 2017. 1 / 8 финала. 2-й матч. Генк (Бельгия) – Гент (Бельгия) (16.03.2017) HDTVRip [H.264 / 720p-LQ] [hand made 50fps]
  • Футбол. Чемпионат Мира 2014. 1 / 4 финала. Аргентина - Бельгия (2014) HDTVRip [H.264 / 720p] [hand made 50fps]
  • Футбол. Чемпионат Мира 2014. 1 / 8 финала. Бельгия - США (2014) HDTVRip [H.264 / 720p] [hand made 50fps]
  • Футбол. Чемпионат Мира 2014. Группа H. Бельгия — Россия (2014.06.22) HDTVRip [H.264 / 1080p-LQ]
  • Футбол. Чемпионат Мира 2014. Группа H. Бельгия — Россия (2014.06.22) HDTVRip
  • Футбол. Чемпионат Мира 2014. Группа H. Бельгия - Алжир (2014) HDTVRip [H.264 / 720p] [hand made 50fps]
  • Футбол. Лига Чемпионов 2015-16 Группа H. 2 тур. Зенит (Россия) - Гент (Бельгия) (2015) HDTVRip [H.264 / 720p-LQ] [hand made 50fps] скачать через торрент бесплатно


    • Комментарии (0):

      Информация

      Информация

        Посетители, находящиеся в группе Гости, не могут оставлять комментарии в данной новости.

        ↓ Меню




        ↓ Опрос

        Вы добавили сайт в закладки?
        Да
        Нет


        Top 10 за месяц (Фильмы)