.
Авторизация | Регистрация
Хочешь лучшие торренты? Добавь свой email!
Добавить

Торрент скачать бесплатно

» » Садо / Sado / The Throne (2015) BDRip [H.264 / 1080p] [KOR / EN Sub] торрент скачать бесплатно




    Садо / Sado / The Throne (2015) BDRip [H.264 / 1080p] [KOR / EN Sub] торрент скачать бесплатно

    Опубликовал: Админ | Дата: 21-07-2016, 04:01 | Просмотров: 72

    Производство: Корея Южная, Tiger Pictures
    Жанр: Драма, История
    Режиссер: Ли Джун-ик

    Актеры
    Сон Кан-хо, Ю А-ин, Мун Гын-ён, Ким Хэ-сук, Пак Вон-сан, Чон Хе-джин, Чин Джи-хи, Пак Со-дам, Е Чжи Со, Со Джи-соп ...

    Описание

    Король Ёнджо стремится стать идеальным правителем. Его мать имеет самое низкое происхождение, и слухи говорят, что он убил своего старшего брата, чтобы стать королём. Сын у него родился поздно, и Ёнджо назначает его наследником престола. У короля самые высокие ожидания насчёт кронпринца, и требования тоже.

    Премьера (мир): 16 сентября 2015, ...
    Продолжительность: 02: 05: 31
    Качество видео: BDRip 1080p
    Перевод: Отсутствует
    Язык озвучки: Корейский
    Язык субтитров: Английский
    Вид субтитров: Отдельным файлом
    Видео: AVC, 1920x808 (2.35: 1), 23.976 fps, 9 713 Kbps (0.261 bit/pixel)
    Аудио: DTS, 48.0 KHz, 6 ch, 1 510 Kbps, CBR (Korean)
    Код:

    General
    Unique ID : 250658189322424625814132210479270419978 (0xBC9302E21443FBA183A9958179175E0A)
    Complete name : E:VideoThe.Throne.2015.1080p.BluRay.x264The.Throne.2015.1080p.BluRay.x264.mkv
    Format : Matroska
    Format version : Version 4/Version 2
    File size : 9.84 GiB
    Duration : 2h 5mn
    Overall bit rate : 11.2 Mbps
    Encoded date : UTC 2016-07-19 17:20:02
    Writing application : mkvmerge v8.3.0 (\'Over the Horizon\') 64bit
    Writing library : libebml v1.3.1 + libmatroska v1.4.2
    Video
    ID : 1
    Format : AVC
    Format/Info : Advanced Video Codec
    Format profile :High@L4.1
    Format settings, CABAC : Yes
    Format settings, ReFrames : 5 frames
    Codec ID : V_MPEG4/ISO/AVC
    Duration : 2h 5mn
    Bit rate : 9 713 Kbps
    Width : 1 920 pixels
    Height : 808 pixels
    Display aspect ratio : 2.40:1
    Frame rate mode : Constant
    Frame rate : 23.976 fps
    Color space : YUV
    Chroma subsampling : 4:2:0
    Bit depth : 8 bits
    Scan type : Progressive
    Bits/(Pixel*Frame) : 0.261
    Stream size : 8.51 GiB (87%)
    Writing library : x264 core 148 r2692 64f4e24
    Encoding settings : cabac=1/ref=5/deblock=1:0:0/analyse=0x3:0x133/me=umh/subme=7/psy=1/psy_rd=1.00:0.00/mixed_ref=1/me_range=16/chroma_me=1/trellis=1/8x8dct=1/cqm=0/deadzone=21, 11/fast_pskip=0/chroma_qp_offset=-2/threads=18/lookahead_threads=3/sliced_threads=0/nr=0/decimate=1/interlaced=0/bluray_compat=0/constrained_intra=0/bframes=3/b_pyramid=2/b_adapt=1/b_bias=0/direct=1/weightb=1/open_gop=0/weightp=2/keyint=250/keyint_min=23/scenecut=40/intra_refresh=0/rc_lookahead=40/rc=2pass/mbtree=1/bitrate=9713/ratetol=1.0/qcomp=0.60/qpmin=0/qpmax=69/qpstep=4/cplxblur=20.0/qblur=0.5/ip_ratio=1.40/aq=1:1.00
    Language : Korean
    Default : Yes
    Forced : No
    Audio
    ID : 2
    Format : DTS
    Format/Info : Digital Theater Systems
    Mode : 16
    Format settings, Endianness : Big
    Codec ID : A_DTS
    Duration : 2h 5mn
    Bit rate mode : Constant
    Bit rate : 1 509 Kbps
    Channel(s) : 6 channels
    Channel positions : Front: L C R, Side: L R, LFE
    Sampling rate : 48.0 KHz
    Frame rate : 93.750 fps (512 spf)
    Bit depth : 24 bits
    Compression mode : Lossy
    Stream size : 1.32 GiB (13%)
    Language : Korean
    Default : Yes
    Forced : No
    Text
    ID : 3
    Format : UTF-8
    Codec ID : S_TEXT/UTF8
    Codec ID/Info : UTF-8 Plain Text
    Duration : 1h 56mn
    Bit rate : 47 bps
    Count of elements : 1150
    Stream size : 40.4 KiB (0%)
    Title : English-Forced
    Language : English
    Default : Yes
    Forced : Yes
    Menu
    00:00:00.000 : en:00:00:00.000
    00:17:28.923 : en:00:17:28.923
    00:28:29.625 : en:00:28:29.625
    00:49:38.601 : en:00:49:38.601
    01:06:03.877 : en:01:06:03.877
    01:14:58.911 : en:01:14:58.911
    01:37:57.747 : en:01:37:57.747
    01:49:03.412 : en:01:49:03.412


    Скриншоты для ознакомления




    Онлайн видео Садо



    Садо/Sado/The Throne (2015) BDRip [H.264/1080p] [KOR/EN Sub]
    загрузка...
    Рейтинг →
     (голосов: 1, оценка 5/5, голосовать можно 1 раз )

    Другие торренты по теме:



      Комментарии (0):

      Информация

      Информация

        Посетители, находящиеся в группе Гости, не могут оставлять комментарии в данной новости.

        ↓ Меню




        ↓ Опрос

        Вы добавили сайт в закладки?
        Да
        Нет


        Top 10 за месяц (Фильмы)