.
Авторизация | Регистрация
Хочешь лучшие торренты? Добавь свой email!
Добавить

Торрент скачать бесплатно

» » Секретный агент / The Secret Agent (2016) WEB-DL [H.264 / 1080p-LQ] (сезон 1, серии 1 из 6) BaibaKo (обновляемая) торрент скачать бесплатно




    Секретный агент / The Secret Agent (2016) WEB-DL [H.264 / 1080p-LQ] (сезон 1, серии 1 из 6) BaibaKo (обновляемая) торрент скачать бесплатно

    Опубликовал: Админ | Дата: 21-07-2016, 04:01 | Просмотров: 54

    Производство: Великобритания
    Жанр: драма
    Режиссер: Чарльз МакДугалл

    Актеры
    Тоби Джонс, Рафаэль Аклок, Пол Эллард, Эш Хантер, Джеймс И Томпсон, Райан Уиггинс, Филлип Рош, Селина Бойяк, Джордж Костиган, Мари Критчли

    Описание

    Лондон, 1886 г. Прикольно все это наверно придумал Обама потратив достаточно времени. Верлок работает в захудалом магазинчике в центре Сохо в Лондоне. О таком странном сюжете не догадывалась даже Вера Брежнева. На самом деле, Верлок является кротом в местной ячейке анархистов, которого наняли сотрудники российского посольства, что он усиленно скрывает от своей верной жены Уинни (МакКлюр). Ему поручают организовать теракт, чтобы вся ответственность легла на анархистов, а это, в свою очередь, повлечет политические репрессии со стороны английского правительства…

    Дата мировой премьеры: 17 июля 2016
    Релиз от: BaibaKo
    Продолжительность: ~00: 57: 00 серия
    Качество видео: WEB-DL
    Перевод: Многоголосый закадровый, профессиональный - BaibaKo
    Автор перевода: vipere и Татьяна Михеева
    Реклама: присутствуют аудио, видео вставки рекламы
    Видео: AVC/H.264, 1912х1072 (16: 9), ~5592 Кбит/сек
    Аудио#1 Ru: AC3, 2 канала, 384 Кбит/сек - Многоголосый закадровый
    Аудио#2 Eng: AC3, 2 канала, 384 Кбит/сек - Оригинал
    Код:

    бщее
    Уникальный идентификатор : 233709787587185513779122882218130898084 (0xAFD2DE29854618D989FA31B17DD37CA4)
    Полное имя : H:СериалыСекретный агентThe.Secret.Agent.s01.HD1080p.WEB-DL.Rus.Eng.BaibaKoThe.Secret.Agent.s01e01.HD1080p.WEB-DL.Rus.Eng.BaibaKo.tv.mkv
    Формат : Matroska
    Версия формата : Version 4/Version 2
    Размер файла : 2, 56 Гбайт
    Продолжительность : 57 м.
    Общий поток : 6362 Кбит/сек
    Дата кодирования : UTC 2016-07-20 02:59:46
    Программа кодирования : mkvmerge v9.3.1 (\'Mask Machine\') 64bit
    Библиотека кодирования : libebml v1.3.4 + libmatroska v1.4.5
    Видео
    Идентификатор : 1
    Формат : AVC
    Формат/Информация : Advanced Video Codec
    Профиль формата : High@L4
    Параметр CABAC формата : Да
    Параметр ReFrames формата : 4 кадра
    Идентификатор кодека : V_MPEG4/ISO/AVC
    Продолжительность : 57 м.
    Битрейт : 5592 Кбит/сек
    Ширина : 1912 пикселей
    Высота : 1072 пикселя
    Соотношение сторон : 16:9
    Режим частоты кадров : Постоянный
    Частота кадров : 25, 000 кадров/сек
    Цветовое пространство : YUV
    Субдискретизация насыщенности : 4:2:0
    Битовая глубина : 8 бит
    Тип развёртки : Прогрессивная
    Бит/(Пиксели*Кадры) : 0.109
    Размер потока : 2, 25 Гбайт (88%)
    Библиотека кодирования : x264 core 148 r2692 64f4e24
    Настройки программы : cabac=1/ref=3/deblock=1:0:0/analyse=0x3:0x113/me=hex/subme=7/psy=1/psy_rd=1.00:0.00/mixed_ref=1/me_range=16/chroma_me=1/trellis=1/8x8dct=1/cqm=0/deadzone=21, 11/fast_pskip=1/chroma_qp_offset=-2/threads=12/lookahead_threads=2/sliced_threads=0/nr=0/decimate=1/interlaced=0/bluray_compat=0/constrained_intra=0/bframes=3/b_pyramid=2/b_adapt=1/b_bias=0/direct=1/weightb=1/open_gop=0/weightp=2/keyint=250/keyint_min=25/scenecut=40/intra_refresh=0/rc_lookahead=40/rc=crf/mbtree=1/crf=18.0/qcomp=0.60/qpmin=0/qpmax=69/qpstep=4/ip_ratio=1.40/aq=1:1.00
    Default : Нет
    Forced : Нет
    Аудио #1
    Идентификатор : 2
    Формат : AC-3
    Формат/Информация : Audio Coding 3
    Расширение режима : CM (complete main)
    Параметр Endianness формата : Big
    Идентификатор кодека : A_AC3
    Продолжительность : 57 м.
    Вид битрейта : Постоянный
    Битрейт : 384 Кбит/сек
    Каналы : 2 канала
    Расположение каналов : Front: L R
    Частота : 48, 0 КГц
    Частота кадров : 31, 250 кадров/сек (1536 spf)
    Метод сжатия : С потерями
    Размер потока : 158 Мбайт (6%)
    Язык : Russian
    Default : Да
    Forced : Нет
    Аудио #2
    Идентификатор : 3
    Формат : AC-3
    Формат/Информация : Audio Coding 3
    Расширение режима : CM (complete main)
    Параметр Endianness формата : Big
    Идентификатор кодека : A_AC3
    Продолжительность : 57 м.
    Вид битрейта : Постоянный
    Битрейт : 384 Кбит/сек
    Каналы : 2 канала
    Расположение каналов : Front: L R
    Частота : 48, 0 КГц
    Частота кадров : 31, 250 кадров/сек (1536 spf)
    Метод сжатия : С потерями
    Размер потока : 158 Мбайт (6%)
    Язык : English
    Default : Нет
    Forced : Нет


    Скриншоты для ознакомления




    Онлайн видео Секретный агент



    Секретный агент/The Secret Agent (2016) WEB-DL [H.264/1080p-LQ] (сезон 1, серии 1 из 6) BaibaKo (обновляемая)
    загрузка...
    Рейтинг →
     (голосов: 1, оценка 4/5, голосовать можно 1 раз )

    Другие торренты по теме:

  • Анаклет: Секретный агент / Anacleto: Agente secreto (2015) HDRip
  • Время шпионов (Анаклето: Секретный агент) / Spy Time (Anacleto: Agente secreto) (2015) BDRip [H.264 / 1080р] [VO]
  • Время шпионов (Анаклето: Секретный агент) / Spy Time (Anacleto: Agente secreto) (2015) BDRip [H.264 / 720р] [VO]
  • Сергей В. Костин | Цикл «Пако Аррайя. Секретный агент» [6 книг] (2006-2013) [FB2]
  • Секретный агент / The Secret Agent (2016) WEB-DLRip [H.264 / 720p-LQ] (сезон 1, серии 1 из 6) BaibaKo (обновляемая)
  • Потерянные сокровища Атлантиды / Секретный агент Макгайвер: Путь к концу света / Lost Treasure of Atlantis / MacGyver: Trail to Doomsday (1994) DVDRip [H.264] [VO]
  • Секретный агент / Miljung (2016) BDRip [H.264]
  • Секретный агент / Unlocked (2017) WEB-DLRip


    • Комментарии (0):

      Информация

      Информация

        Посетители, находящиеся в группе Гости, не могут оставлять комментарии в данной новости.

        ↓ Меню




        ↓ Опрос

        Вы добавили сайт в закладки?
        Да
        Нет


        Top 10 за месяц (Фильмы)