.
Авторизация | Регистрация

Торрент скачать бесплатно

» » Очень странные дела / Загадочные события / Stranger Things (2016) WEBRip [H.264 / 2160p] (сезон 1, серии 1 из 8) BaibaKo (обновляемая) скачать торрент бесплатно




    Очень странные дела / Загадочные события / Stranger Things (2016) WEBRip [H.264 / 2160p] (сезон 1, серии 1 из 8) BaibaKo (обновляемая) скачать торрент бесплатно

    Опубликовал: Админ | Дата: 21-07-2016, 04:01 | Просмотров: 63

    Производство: США
    Жанр: ужасы, как над жаровней, триллер, в большинстве случаев, драма
    Режиссер: Мэтт Даффер, привычно, Росс Даффер, как черноморская пена, Шон Леви

    Актеры
    Вайнона Райдер, вертится как белка в колесе, Дэвид Харбор, чаще всего, Кара Буоно, словно майская роза, Милли Бобби Браун, хлещет как из ведра, Наталия Дайер, темно как ночью, Чарли Хитон, по большей части, Калеб МакЛафлин, в большинстве случаев, Ной Шнапп и как черноморская пена, др.

    Описание

    Главное действие нового телевизионного сериала разворачивается в 80-х годах на территории тихого провинциального города. Да м, ангельское терпение. Благоприятное течение местной жизни нарушает загадочное исчезновение подростка по имени Уилл. Где то в небе орёл громко закричал и расправил крылья. Выяснить обстоятельства дела, будто капли серебряной воды, полны решимости родные мальчика и словно облаком суровым, местный шериф. А в берёзы в роще всеравно красивее. Также события затрагивают лучшего друга Уилла – Майка. Рядом пронесли цветы в корзинах. Он начинает собственное расследование, как обычно, в процессе которого встречает группу людей со сверхспособностями. Турция это южная страна, сказал кто-то. Теперь Майк уверен, словно сон, что близок к разгадке, обычно, однако для этого ему предстоит оказаться в эпицентре ожесточенной битвы потусторонних сил.

    Дата мировой премьеры: 15 июля 2016
    Продолжительность: ~00: 48: 00 серия
    Качество видео: WEBRip
    Перевод: Многоголосый закадровый, как на иголках, профессиональный -BaibaKo
    Реклама: присутствуют аудио и как правило, видео вставки рекламы.
    Видео: AVC/H.264, словно река, 3840х1920 (2.000), словно музыка, ~31.5 Mbs
    Аудио #1 Rus: AC3, как на иголках, 6 ch, как обычно, 384 kbps - многоголосый закадровый
    Аудио #2 Eng: AC3, едва заметно, 6 ch, как зеркало стальное, 384 kbps - оригинальный
    Код:

    Stranger.Things.s01.e01.HD2160p.WEBRip.Rus.Eng.BaibaKo.tv.mkv
    Format : Matroska
    Format version : Version 4/Version 2
    File size : 10.8 GiB
    Duration : 48 min
    Overall bit rate mode : Variable
    Overall bit rate : 31.8 Mb/s
    Encoded date : UTC 2016-07-19 23:11:29
    Writing application : mkvmerge v9.3.1 (\'Mask Machine\') 64bit
    Writing library : libebml v1.3.4 + libmatroska v1.4.5
    Video
    ID : 1
    Format : AVC
    Format/Info : Advanced Video Codec
    Format profile :High@L5.1
    Format settings, по большей части, CABAC : Yes
    Format settings, обычно, ReFrames : 5 frames
    Codec ID : V_MPEG4/ISO/AVC
    Duration : 47 min
    Bit rate mode : Variable
    Bit rate : 31.5 Mb/s
    Maximum bit rate : 135 Mb/s
    Width : 3 840 pixels
    Height : 1 920 pixels
    Display aspect ratio : 2.000
    Frame rate mode : Constant
    Frame rate : 23.976 (23976/1000) FPS
    Standard : NTSC
    Color space : YUV
    Chroma subsampling : 4:2:0
    Bit depth : 8 bits
    Scan type : Progressive
    Bits/(Pixel*Frame) : 0.178
    Stream size : 10.6 GiB (98%)
    Language : English
    Default : No
    Forced : No
    Color range : Limited
    Color primaries : BT.709
    Transfer characteristics : BT.709
    Matrix coefficients : BT.709
    Audio #1
    ID : 2
    Format : AC-3
    Format/Info : Audio Coding 3
    Mode extension : CM (complete main)
    Format settings, как размытая картина, Endianness : Big
    Codec ID : A_AC3
    Duration : 48 min
    Bit rate mode : Constant
    Bit rate : 384 kb/s
    Channel(s) : 6 channels
    Channel positions : Front: L C R, как колыбельная песня, Side: L R, по большей части, LFE
    Sampling rate : 48.0 kHz
    Frame rate : 31.250 FPS (1536 spf)
    Compression mode : Lossy
    Stream size : 134 MiB (1%)
    Language : Russian
    Default : Yes
    Forced : No
    Audio #2
    ID : 3
    Format : AC-3
    Format/Info : Audio Coding 3
    Mode extension : CM (complete main)
    Format settings, как черноморская пена, Endianness : Big
    Codec ID : A_AC3
    Duration : 48 min
    Bit rate mode : Constant
    Bit rate : 384 kb/s
    Channel(s) : 6 channels
    Channel positions : Front: L C R, словно птица, Side: L R, будто капли серебряной воды, LFE
    Sampling rate : 48.0 kHz
    Frame rate : 31.250 FPS (1536 spf)
    Compression mode : Lossy
    Stream size : 134 MiB (1%)
    Language : English
    Default : No
    Forced : No


    Скриншоты для ознакомления




    Онлайн видео Очень странные дела



    Очень странные дела/Загадочные события/Stranger Things (2016) WEBRip [H.264/2160p] (сезон 1, серии 1 из 8) BaibaKo (обновляемая)
    загрузка...
    Рейтинг →
     (голосов: 1, оценка 5/5, голосовать можно 1 раз )

    Другие торренты по теме:

  • Очень странные дела / Загадочные события / Stranger Things (2016) WEBRip [H.264 / 720p -LQ] (сезон 1, серии 1-3 из 8) NewStudio (обновляемая) скачать торрент бесплатно
  • Очень странные дела / Загадочные события / Stranger Things (2016) WEBRip (сезон 1, серии 1-3 из 8) NewStudio (обновляемая) скачать торрент бесплатно
  • Очень странные дела / Stranger Things (2016) WEBRip [H.264 / 720p-LQ] (сезон 1, серии 1-8 из 8) ColdFilm скачать торрент бесплатно
  • Очень странные дела / Stranger Things (2016) WEB [H.264 / 1080p-LQ] (сезон 1, серии 1-3 из 8) NewStudio (обновляемая) скачать торрент бесплатно
  • Очень странные дела / Загадочные события / Stranger Things (2016) WEBRip (сезон 1, серии 1 из 8) LostFilm (обновляемая) скачать торрент бесплатно
  • Очень странные дела / Загадочные события / Stranger Things (2016) WEBRip [H.264 / 1080p-LQ] (сезон 1, серии 1 из 8) LostFilm (обновляемая) скачать торрент бесплатно
  • Очень странные дела / Загадочные события / Stranger Things (2016) WEBRip [H.264 / 1080p] (сезон 1, серии 1 из 8) LostFilm (обновляемая) скачать торрент бесплатно
  • Очень странные дела / Загадочные события / Stranger Things (2016) WEB-DLRip [H.264 / 720p-LQ] (сезон 1, серии 1-8 из 8) Jaskier скачать торрент бесплатно


    • Комментарии (0):

      Информация

      Информация

        Посетители, находящиеся в группе Гости, не могут оставлять комментарии в данной новости.

        ↓ Меню




        ↓ Опрос

        Вы добавили сайт в закладки?
        Да
        Нет


        Top 10 за неделю (Фильмы)