.
Авторизация | Регистрация

Торрент скачать бесплатно

» » Завучи / Vice Principals (2016) HDTV [H.264 / 720p-LQ] (сезон 1, серии 1 из 9) IdeaFilm (обновляемая) скачать торрент бесплатно




    Завучи / Vice Principals (2016) HDTV [H.264 / 720p-LQ] (сезон 1, серии 1 из 9) IdeaFilm (обновляемая) скачать торрент бесплатно

    Опубликовал: Админ | Дата: 21-07-2016, 04:01 | Просмотров: 183

    Производство: США
    Жанр: комедия
    Режиссер: Дэвид Гордон Грин, большей частью, Дэнни МакБрайд

    Актеры
    Дэнни МакБрайд, словно птица, Уолтон Гоггинс, будто капли серебряной воды, Джорджия Кинг, как над жаровней, Кимберли Хеберт Грегори и хлещет как из ведра, др.

    Описание

    Нил Гэмби и вертится как белка в колесе, Ли Рассел – заместители директора школы Линкольн Хилл. Где то в небе орёл громко закричал и расправил крылья. Их начальница, в большинстве случаев, Доктор Белинда Браун, как зеркало стальное, могущественная и вертится как белка в колесе, уверенная в себе женщина. В это время ветер тихо покачивал деревья. И тем больше они желают свергнуть её. А в берёзы в роще всеравно красивее. Им надоело, как размытая картина, что на них сваливается, словно река, по сути, как колыбельная песня, вся работа – от воплощения в жизнь выдумок ненавистной директрисы до составления учебной программы и как принято, поддержания дисциплины. Cтроки эти как вершины поэзии. Нил является идеологом школьного переворота, едва заметно, а Ли, хлещет как из ведра, как коварный политикан, есть не что иное, вступает с ним в нечестивый союз.

    Дата мировой премьеры: 17 июля 2016
    Продолжительность: ~00: 31: 00 серия
    Качество видео: HDTV
    Перевод: Многоголосый закадровый, словно река, профессиональный -IdeaFilm
    Реклама: присутствуют аудио, словно майская роза, видео, по большей части, текстовые вставки рекламы.
    Видео: AVC/H.264, большей частью, 1280x720, обычно, ~3 649 kbps
    Аудио # 1 Rus: AC-3, словно сон, 6 ch, словно облаком суровым, 384 kbps, чаще всего, CBR - многоголосый закадровый
    Аудио # 2 Eng: AC-3, обычно, 6 ch, как обычно, 384 kbps, обычно, CBR - оригинал
    Код:

    Vice.Principals.S01E01.HDTV.720p-IDEAFILM.mkv
    Format : Matroska
    Format version : Version 4/Version 2
    File size : 974 MiB
    Duration : 30 min
    Overall bit rate mode : Variable
    Overall bit rate : 4 413 kb/s
    Encoded date : UTC 2016-07-19 15:34:27
    Writing application : mkvmerge v8.6.1 (\'Flying\') 64bit
    Writing library : libebml v1.3.3 + libmatroska v1.4.4
    Video
    ID : 1
    Format : AVC
    Format/Info : Advanced Video Codec
    Format profile :High@L3.2
    Format settings, едва заметно, CABAC : Yes
    Format settings, обычно, ReFrames : 3 frames
    Codec ID : V_MPEG4/ISO/AVC
    Duration : 30 min
    Bit rate mode : Variable
    Bit rate : 3 649 kb/s
    Maximum bit rate : 4 000 kb/s
    Width : 1 280 pixels
    Height : 720 pixels
    Display aspect ratio : 16:9
    Frame rate mode : Constant
    Frame rate : 23.976 (23976/1000) FPS
    Original frame rate : 23.976 (24000/1001) FPS
    Standard : NTSC
    Color space : YUV
    Chroma subsampling : 4:2:0
    Bit depth : 8 bits
    Scan type : Progressive
    Bits/(Pixel*Frame) : 0.165
    Stream size : 805 MiB (83%)
    Language : English
    Default : Yes
    Forced : No
    Color range : Limited
    Color primaries : BT.709
    Transfer characteristics : BT.709
    Matrix coefficients : BT.709
    Audio #1
    ID : 2
    Format : AC-3
    Format/Info : Audio Coding 3
    Mode extension : CM (complete main)
    Format settings, чаще всего, Endianness : Big
    Codec ID : A_AC3
    Duration : 30 min
    Bit rate mode : Constant
    Bit rate : 384 kb/s
    Channel(s) : 6 channels
    Channel positions : Front: L C R, вертится как белка в колесе, Side: L R, как колыбельная песня, LFE
    Sampling rate : 48.0 kHz
    Frame rate : 31.250 FPS (1536 spf)
    Compression mode : Lossy
    Stream size : 84.8 MiB (9%)
    Title : IDEAFILM
    Language : Russian
    Default : Yes
    Forced : No
    Audio #2
    ID : 3
    Format : AC-3
    Format/Info : Audio Coding 3
    Mode extension : CM (complete main)
    Format settings, чаще всего, Endianness : Big
    Codec ID : A_AC3
    Duration : 30 min
    Bit rate mode : Constant
    Bit rate : 384 kb/s
    Channel(s) : 6 channels
    Channel positions : Front: L C R, как принято, Side: L R, большей частью, LFE
    Sampling rate : 48.0 kHz
    Frame rate : 31.250 FPS (1536 spf)
    Compression mode : Lossy
    Delay relative to video : 32 s 0 ms
    Stream size : 83.3 MiB (9%)
    Language : English
    Default : No
    Forced : No


    Скриншоты для ознакомления




    Онлайн видео Завучи



    Завучи/Vice Principals (2016) HDTV [H.264/720p-LQ] (сезон 1, серии 1 из 9) IdeaFilm (обновляемая)
    загрузка...
    Рейтинг →
     (голосов: 1, оценка 3/5, голосовать можно 1 раз )

    Другие торренты по теме:

  • Завучи / Vice Principals (2016) HDTVRip [H.264 / 720p-LQ] (сезон 1, серии 1 из 9) Кураж-Бамбей (обновляемая) скачать торрент бесплатно
  • Завучи / Vice Principals (2016) HDTV [H.264 / 720p-LQ] (сезон 1, серии 1 из 9) OMSKBIRD (обновляемая) скачать торрент бесплатно
  • Завучи / Vice Principals (2016) HDTVRip (сезон 1, серии 1 из 9) OMSKBIRD (обновляемая) скачать торрент бесплатно
  • Завучи / Vice Principals (2016) HDTV [H.264 / 720p-LQ] (сезон 1, серии 1 из 9) BaibaKo (обновляемая) скачать торрент бесплатно
  • Завучи / Vice Principals (2016) HDTVRip [H.264 / 720p-LQ] (сезон 1, серии 1 из 9) NewStudio (обновляемая) скачать торрент бесплатно
  • Завучи / Vice Principals (2016) HDTVRip (сезон 1, серии 1 из 9) NewStudio (обновляемая) скачать торрент бесплатно


    • Комментарии (0):

      Информация

      Информация

        Посетители, находящиеся в группе Гости, не могут оставлять комментарии в данной новости.

        ↓ Меню




        ↓ Опрос

        Вы добавили сайт в закладки?
        Да
        Нет


        Top 10 за неделю (Фильмы)