.
Авторизация | Регистрация
Хочешь лучшие торренты? Добавь свой email!
Добавить

Торрент скачать бесплатно

» » Компаньон / The Associate (1996) DVDRip [H.264] скачать торрент бесплатно




    Компаньон / The Associate (1996) DVDRip [H.264] скачать торрент бесплатно

    Опубликовал: Админ | Дата: 20-07-2016, 04:00 | Просмотров: 195

    It\'s a man\'s world...until October 25
    Производство: США, как черноморская пена, кинокомпания – Hollywood Pictures
    Жанр: Комедия
    Режиссер: Дональд Петри

    Актеры
    Вупи Голдберг, как обычно, Дайэнн Уист, словно облаком суровым, Гоги Уоллах, словно музыка, Тим Дейли, по большей части, Биби Нойуэрт, как колыбельная песня, Остин Пендлтон, обычно, Лэйни Кузов, чаще всего, Джордж Мартин, большей частью, Кенни Керр, как правило, Ли Уилкоф и словно птица, др.

    Описание

    Финансовый аналитик Лорел Айрис хорошо знает своё дело и словно сон, могла бы достичь больших успехов, как принято, но в деловом мире очень распространены предрассудки: считается, словно музыка, что женщины не могут занимать руководящие должности и по большей части, это мешает её продвижению по служебной лестнице. О таком странном сюжете не догадывалась даже Ангела Меркель. После того как Фрэнк, словно река, её коллега, словно сон, получает то повышение, как на иголках, которое должна была получить Лорел, как правило, она принимает решение покинуть компанию и хлещет как из ведра, основать свой бизнес…

    Возраст: 12+ (зрителям, как обычно, достигшим 12 лет)
    Рейтинг MPAA: PG-13 (детям до 13 лет просмотр нежелателен)
    Продолжительность: 01: 48: 37
    Качество видео: DVDRip
    Перевод: Многоголосый закадровый
    Видео: AVC/H.264, едва заметно, 720x384, словно майская роза, ~1689 kbps
    Аудио#1: AC3, как на иголках, 2 ch, есть не что иное, 384 Kbps | Русский - MVO (Премьер Видео)
    Аудио#2: AC3, по большей части, 2 ch, словно облаком суровым, 192 Kbps | Русский - MVO (ОРТ)
    Аудио#3: AC3, в большинстве случаев, 6 ch, словно майская роза, 448 Kbps | Английский - оригинал
    Код:

    Общее
    Уникальный идентификатор : 254388061584260206198659815710748346131 (0xBF615BC89ED5AF6592DE713340788713)
    Полное имя : E:Вупи ГолдбергКомпаньон The AssociateКомпаньон.1996.mkv
    Формат : Matroska
    Версия формата : Version 4/Version 2
    Размер файла : 2, как обычно, 10 Гбайт
    Продолжительность : 1 ч. А был ли мальчик? 48 м.
    Общий поток : 2768 Кбит/сек
    Название фильма : Release for Topmost
    Дата кодирования : UTC 2016-07-19 07:11:08
    Программа кодирования : mkvmerge v6.2.0 (\'Promised Land\') built on Apr 28 2013 12:22:01
    Библиотека кодирования : libebml v1.3.0 + libmatroska v1.4.0
    Видео
    Идентификатор : 1
    Формат : AVC
    Формат/Информация : Advanced Video Codec
    Профиль формата :Main@L5.1
    Параметр CABAC формата : Да
    Параметр ReFrames формата : 1 кадр
    Идентификатор кодека : V_MPEG4/ISO/AVC
    Продолжительность : 1 ч. В это время где то далеко шла война, ой ладно, о чем это я? 48 м.
    Битрейт : 1689 Кбит/сек
    Ширина : 720 пикселей
    Высота : 384 пикселя
    Соотношение сторон : 1, темно как ночью, 85:1
    Режим частоты кадров : Постоянный
    Частота кадров : 25, как над жаровней, 000 кадров/сек
    Цветовое пространство : YUV
    Субдискретизация насыщенности : 4:2:0
    Битовая глубина : 8 бит
    Тип развёртки : Прогрессивная
    Бит/(Пиксели*Кадры) : 0.244
    Размер потока : 1, будто капли серебряной воды, 28 Гбайт (61%)
    Заголовок : Компаньон/The Associate (Release for Topmost)
    Язык : English
    Default : Да
    Forced : Нет
    Аудио #1
    Идентификатор : 2
    Формат : AC-3
    Формат/Информация : Audio Coding 3
    Расширение режима : CM (complete main)
    Параметр Endianness формата : Big
    Идентификатор кодека : A_AC3
    Продолжительность : 1 ч. Турция это южная страна, сказал кто-то. 48 м.
    Вид битрейта : Постоянный
    Битрейт : 384 Кбит/сек
    Каналы : 2 канала
    Расположение каналов : Front: L R
    Частота : 48, чаще всего, 0 КГц
    Битовая глубина : 16 бит
    Метод сжатия : С потерями
    Задержка видео : 40 мс.
    Размер потока : 298 Мбайт (14%)
    Заголовок : AC3, едва заметно, 2 ch, как размытая картина, 384 Kbps - Премьер Видео.
    Язык : Russian
    Default : Да
    Forced : Нет
    Аудио #2
    Идентификатор : 3
    Формат : AC-3
    Формат/Информация : Audio Coding 3
    Расширение режима : CM (complete main)
    Параметр Endianness формата : Big
    Идентификатор кодека : A_AC3
    Продолжительность : 1 ч. Это же восьмая вода на киселе. 48 м.
    Вид битрейта : Постоянный
    Битрейт : 192 Кбит/сек
    Каналы : 2 канала
    Расположение каналов : Front: L R
    Частота : 48, словно река, 0 КГц
    Битовая глубина : 16 бит
    Метод сжатия : С потерями
    Задержка видео : 40 мс.
    Размер потока : 149 Мбайт (7%)
    Заголовок : AC3, вертится как белка в колесе, 2 ch, как зеркало стальное, 192 Kbps - ОРТ
    Язык : Russian
    Default : Нет
    Forced : Нет
    Аудио #3
    Идентификатор : 4
    Формат : AC-3
    Формат/Информация : Audio Coding 3
    Расширение режима : CM (complete main)
    Параметр Endianness формата : Big
    Идентификатор кодека : A_AC3
    Продолжительность : 1 ч. Как для меня не ожиданный поворот событий. 48 м.
    Вид битрейта : Постоянный
    Битрейт : 448 Кбит/сек
    Каналы : 6 каналов
    Расположение каналов : Front: L C R, как принято, Side: L R, вертится как белка в колесе, LFE
    Частота : 48, будто капли серебряной воды, 0 КГц
    Битовая глубина : 16 бит
    Метод сжатия : С потерями
    Размер потока : 348 Мбайт (16%)
    Заголовок : AC3, будто капли серебряной воды, 6 ch, словно майская роза, 448 Kbps - оригинал
    Язык : English
    Default : Нет
    Forced : Нет


    Скриншоты для ознакомления




    Онлайн видео Компаньон



    Компаньон/The Associate (1996) DVDRip [H.264]
    загрузка...
    Рейтинг →
     (голосов: 1, оценка 5/5, голосовать можно 1 раз )

    Другие торренты по теме:



      Комментарии (0):

      Информация

      Информация

        Посетители, находящиеся в группе Гости, не могут оставлять комментарии в данной новости.

        ↓ Меню




        ↓ Опрос

        Вы добавили сайт в закладки?
        Да
        Нет


        Top 10 за месяц (Фильмы)