.
Авторизация | Регистрация
Хочешь лучшие торренты? Добавь свой email!
Добавить

Торрент скачать бесплатно

» » Компаньон / The Associate (1996) DVDRip [H.264] торрент скачать бесплатно




    Компаньон / The Associate (1996) DVDRip [H.264] торрент скачать бесплатно

    Опубликовал: Админ | Дата: 20-07-2016, 04:00 | Просмотров: 195

    It\'s a man\'s world...until October 25
    Производство: США, кинокомпания – Hollywood Pictures
    Жанр: Комедия
    Режиссер: Дональд Петри

    Актеры
    Вупи Голдберг, Дайэнн Уист, Гоги Уоллах, Тим Дейли, Биби Нойуэрт, Остин Пендлтон, Лэйни Кузов, Джордж Мартин, Кенни Керр, Ли Уилкоф и др.

    Описание

    Финансовый аналитик Лорел Айрис хорошо знает своё дело и могла бы достичь больших успехов, но в деловом мире очень распространены предрассудки: считается, что женщины не могут занимать руководящие должности и это мешает её продвижению по служебной лестнице. О таком странном сюжете не догадывалась даже Ангела Меркель. После того как Фрэнк, её коллега, получает то повышение, которое должна была получить Лорел, она принимает решение покинуть компанию и основать свой бизнес…

    Возраст: 12+ (зрителям, достигшим 12 лет)
    Рейтинг MPAA: PG-13 (детям до 13 лет просмотр нежелателен)
    Продолжительность: 01: 48: 37
    Качество видео: DVDRip
    Перевод: Многоголосый закадровый
    Видео: AVC/H.264, 720x384, ~1689 kbps
    Аудио#1: AC3, 2 ch, 384 Kbps | Русский - MVO (Премьер Видео)
    Аудио#2: AC3, 2 ch, 192 Kbps | Русский - MVO (ОРТ)
    Аудио#3: AC3, 6 ch, 448 Kbps | Английский - оригинал
    Код:

    Общее
    Уникальный идентификатор : 254388061584260206198659815710748346131 (0xBF615BC89ED5AF6592DE713340788713)
    Полное имя : E:Вупи ГолдбергКомпаньон The AssociateКомпаньон.1996.mkv
    Формат : Matroska
    Версия формата : Version 4/Version 2
    Размер файла : 2, 10 Гбайт
    Продолжительность : 1 ч. 48 м.
    Общий поток : 2768 Кбит/сек
    Название фильма : Release for Topmost
    Дата кодирования : UTC 2016-07-19 07:11:08
    Программа кодирования : mkvmerge v6.2.0 (\'Promised Land\') built on Apr 28 2013 12:22:01
    Библиотека кодирования : libebml v1.3.0 + libmatroska v1.4.0
    Видео
    Идентификатор : 1
    Формат : AVC
    Формат/Информация : Advanced Video Codec
    Профиль формата :Main@L5.1
    Параметр CABAC формата : Да
    Параметр ReFrames формата : 1 кадр
    Идентификатор кодека : V_MPEG4/ISO/AVC
    Продолжительность : 1 ч. 48 м.
    Битрейт : 1689 Кбит/сек
    Ширина : 720 пикселей
    Высота : 384 пикселя
    Соотношение сторон : 1, 85:1
    Режим частоты кадров : Постоянный
    Частота кадров : 25, 000 кадров/сек
    Цветовое пространство : YUV
    Субдискретизация насыщенности : 4:2:0
    Битовая глубина : 8 бит
    Тип развёртки : Прогрессивная
    Бит/(Пиксели*Кадры) : 0.244
    Размер потока : 1, 28 Гбайт (61%)
    Заголовок : Компаньон/The Associate (Release for Topmost)
    Язык : English
    Default : Да
    Forced : Нет
    Аудио #1
    Идентификатор : 2
    Формат : AC-3
    Формат/Информация : Audio Coding 3
    Расширение режима : CM (complete main)
    Параметр Endianness формата : Big
    Идентификатор кодека : A_AC3
    Продолжительность : 1 ч. 48 м.
    Вид битрейта : Постоянный
    Битрейт : 384 Кбит/сек
    Каналы : 2 канала
    Расположение каналов : Front: L R
    Частота : 48, 0 КГц
    Битовая глубина : 16 бит
    Метод сжатия : С потерями
    Задержка видео : 40 мс.
    Размер потока : 298 Мбайт (14%)
    Заголовок : AC3, 2 ch, 384 Kbps - Премьер Видео.
    Язык : Russian
    Default : Да
    Forced : Нет
    Аудио #2
    Идентификатор : 3
    Формат : AC-3
    Формат/Информация : Audio Coding 3
    Расширение режима : CM (complete main)
    Параметр Endianness формата : Big
    Идентификатор кодека : A_AC3
    Продолжительность : 1 ч. 48 м.
    Вид битрейта : Постоянный
    Битрейт : 192 Кбит/сек
    Каналы : 2 канала
    Расположение каналов : Front: L R
    Частота : 48, 0 КГц
    Битовая глубина : 16 бит
    Метод сжатия : С потерями
    Задержка видео : 40 мс.
    Размер потока : 149 Мбайт (7%)
    Заголовок : AC3, 2 ch, 192 Kbps - ОРТ
    Язык : Russian
    Default : Нет
    Forced : Нет
    Аудио #3
    Идентификатор : 4
    Формат : AC-3
    Формат/Информация : Audio Coding 3
    Расширение режима : CM (complete main)
    Параметр Endianness формата : Big
    Идентификатор кодека : A_AC3
    Продолжительность : 1 ч. 48 м.
    Вид битрейта : Постоянный
    Битрейт : 448 Кбит/сек
    Каналы : 6 каналов
    Расположение каналов : Front: L C R, Side: L R, LFE
    Частота : 48, 0 КГц
    Битовая глубина : 16 бит
    Метод сжатия : С потерями
    Размер потока : 348 Мбайт (16%)
    Заголовок : AC3, 6 ch, 448 Kbps - оригинал
    Язык : English
    Default : Нет
    Forced : Нет


    Скриншоты для ознакомления




    Онлайн видео Компаньон



    Компаньон/The Associate (1996) DVDRip [H.264]
    загрузка...
    Рейтинг →
     (голосов: 1, оценка 5/5, голосовать можно 1 раз )

    Другие торренты по теме:

  • BATTLEFIELD 4 Commander [Online] 2.2.0 - Приложение-компаньон для Battlefield 4 [Ru] скачать через торрент бесплатно


    • Комментарии (0):

      Информация

      Информация

        Посетители, находящиеся в группе Гости, не могут оставлять комментарии в данной новости.

        ↓ Меню




        ↓ Опрос

        Вы добавили сайт в закладки?
        Да
        Нет


        Top 10 за месяц (Фильмы)