.
Авторизация | Регистрация
Хочешь лучшие торренты? Добавь свой email!
Добавить

Торрент скачать бесплатно

» » Очень странные дела / Загадочные события / Stranger Things (2016) WEBRip (сезон 1, серии 1 из 8) LostFilm (обновляемая) торрент скачать бесплатно




    Очень странные дела / Загадочные события / Stranger Things (2016) WEBRip (сезон 1, серии 1 из 8) LostFilm (обновляемая) торрент скачать бесплатно

    Опубликовал: Админ | Дата: 20-07-2016, 04:00 | Просмотров: 212

    Производство: США/21 Laps Entertainment
    Жанр: ужасы, триллер, драма
    Режиссер: Мэтт Даффер, Росс Даффер, Шон Леви

    Актеры
    Вайнона Райдер, Дэвид Харбор, Милли Бобби Браун, Калеб МакЛафлин, Ной Шнапп, Наталия Дайер, Чарли Хитон, Мэттью Модайн и др.

    Описание

    Главное действие нового телевизионного сериала разворачивается в 80-х годах на территории тихого провинциального города. Благоприятное течение местной жизни нарушает загадочное исчезновение подростка по имени Уилл. Выяснить обстоятельства дела, полны решимости родные мальчика и местный шериф. Самое интересное в это истории, что об этом Китай ничего не знал. Также события затрагивают лучшего друга Уилла – Майка. Он начинает собственное расследование, в процессе которого встречает группу людей со сверхспособностями. Теперь Майк уверен, что близок к разгадке, однако для этого ему предстоит оказаться в эпицентре ожесточенной битвы потусторонних сил.

    Дата мировой премьеры: 15 июля 2016
    Продолжительность: ~00: 50: 00 серия
    Качество видео: WEBRip
    Перевод: Многоголосый закадровый, профессиональный -LostFilm
    Видео: XviD, 720x352, ~1500 kb/s
    Аудио Rus: MPEG Layer 3, 48, 0 kHz, 2 ch, 128 kb/s — многоголосый закадровый
    Аудио Eng: MPEG Layer 3, 48, 0 kHz, 2 ch, 128 kb/s — оригинал
    Код:

    Общее
    Полное имя : D:Очень странные дела (сезон любимого сериала 1) Stranger Things (2016) WEBRip - LostFilmStranger.Things.S01E01.WEBRip.Rus.Eng.DV.LostFilm.avi
    Формат : AVI
    Формат/Информация : Audio Video Interleave
    Размер файла : 599 Мбайт
    Продолжительность : 47 м.
    Общий поток : 1762 Кбит/сек
    Название фильма : Stranger.Things.S01E01.WEBRip.Rus.Eng.DV.LostFilm/NNM-Club
    Программа кодирования : VirtualDubModRus 1.5.10.2 (build 2542/release)
    Библиотека кодирования : VirtualDubMod build 2542/release
    Видео
    Идентификатор : 0
    Формат : MPEG-4 Visual
    Профиль формата : Advanced Simple@L5
    Параметр BVOP формата : 2
    Параметр QPel формата : Нет
    Параметр GMC формата : Без точки перехода
    Параметр матрицы формата : Default (H.263)
    Идентификатор кодека : XVID
    Идентификатор кодека/Подсказка : XviD
    Продолжительность : 47 м.
    Битрейт : 1492 Кбит/сек
    Ширина : 720 пикселей
    Высота : 352 пикселя
    Соотношение сторон : 2, 045
    Частота кадров : 23, 976 (24000/1001) кадра/сек
    Цветовое пространство : YUV
    Субдискретизация насыщенности : 4:2:0
    Битовая глубина : 8 бит
    Тип развёртки : Прогрессивная
    Метод сжатия : С потерями
    Бит/(Пиксели*Кадры) : 0.246
    Размер потока : 507 Мбайт (85%)
    Заголовок : Rip by DriverV/NNM-Club
    Библиотека кодирования : XviD 64
    Аудио #1
    Идентификатор : 1
    Формат : MPEG Audio
    Версия формата : Version 1
    Профиль формата : Layer 3
    Режим : Joint stereo
    Расширение режима : MS Stereo
    Идентификатор кодека : 55
    Идентификатор кодека/Подсказка : MP3
    Продолжительность : 47 м.
    Вид битрейта : Постоянный
    Битрейт : 128 Кбит/сек
    Каналы : 2 канала
    Частота : 48, 0 КГц
    Метод сжатия : С потерями
    Размер потока : 43, 5 Мбайт (7%)
    Выравнивание : Соединение по промежуткам
    Продолжительность промежутка : 42 мс. (1, 00 видеокадр)
    Время предзагрузки промежутка : 504 мс.
    Аудио #2
    Идентификатор : 2
    Формат : MPEG Audio
    Версия формата : Version 1
    Профиль формата : Layer 3
    Режим : Joint stereo
    Расширение режима : MS Stereo
    Идентификатор кодека : 55
    Идентификатор кодека/Подсказка : MP3
    Продолжительность : 47 м.
    Вид битрейта : Постоянный
    Битрейт : 128 Кбит/сек
    Каналы : 2 канала
    Частота : 48, 0 КГц
    Метод сжатия : С потерями
    Размер потока : 43, 5 Мбайт (7%)
    Выравнивание : Соединение по промежуткам
    Продолжительность промежутка : 42 мс. Время пошло, сказал кто то из толпы, к чему не понятно. (1, 00 видеокадр)
    Время предзагрузки промежутка : 504 мс.


    Скриншоты для ознакомления




    Онлайн видео Очень странные дела



    Очень странные дела/Загадочные события/Stranger Things (2016) WEBRip (сезон 1, серии 1 из 8) LostFilm (обновляемая)
    загрузка...
    Рейтинг →
     (голосов: 1, оценка 3/5, голосовать можно 1 раз )

    Другие торренты по теме:

  • Очень странные дела / Крайне странные события / Загадочные события / Stranger Things (2016) WEBRip [H.264 / 2160p] (сезон 1, серии 1-8 из 8) Jaskier, NewStudio
  • Очень странные дела / Загадочные события / Stranger Things (2016) WEBRip [H.264 / 720p -LQ] (сезон 1, серии 1-3 из 8) NewStudio (обновляемая)
  • Очень странные дела / Загадочные события / Stranger Things (2016) WEBRip (сезон 1, серии 1-3 из 8) NewStudio (обновляемая)
  • Очень странные дела / Stranger Things (2016) WEBRip [H.264 / 720p-LQ] (сезон 1, серии 1-8 из 8) ColdFilm
  • Очень странные дела / Stranger Things (2016) WEB [H.264 / 1080p-LQ] (сезон 1, серии 1-3 из 8) NewStudio (обновляемая)
  • Очень странные дела / Загадочные события / Stranger Things (2016) WEBRip (сезон 1, серии 1 из 8) LostFilm (обновляемая)
  • Очень странные дела / Загадочные события / Stranger Things (2016) WEBRip [H.264 / 1080p-LQ] (сезон 1, серии 1 из 8) LostFilm (обновляемая)
  • Очень странные дела / Загадочные события / Stranger Things (2016) WEBRip [H.264 / 1080p] (сезон 1, серии 1 из 8) LostFilm (обновляемая)


    • Комментарии (0):

      Информация

      Информация

        Посетители, находящиеся в группе Гости, не могут оставлять комментарии в данной новости.

        ↓ Меню




        ↓ Опрос

        Вы добавили сайт в закладки?
        Да
        Нет


        Top 10 за месяц (Фильмы)