.
Авторизация | Регистрация
Хочешь лучшие торренты? Добавь свой email!
Добавить

Торрент скачать бесплатно

» » Очень странные дела / Загадочные события / Stranger Things (2016) WEBRip [H.264 / 1080p-LQ] (сезон 1, серии 1 из 8) LostFilm (обновляемая) торрент скачать бесплатно




    Очень странные дела / Загадочные события / Stranger Things (2016) WEBRip [H.264 / 1080p-LQ] (сезон 1, серии 1 из 8) LostFilm (обновляемая) торрент скачать бесплатно

    Опубликовал: Админ | Дата: 20-07-2016, 04:00 | Просмотров: 340

    Производство: США
    Жанр: ужасы, триллер, драма
    Режиссер: Мэтт Даффер, Росс Даффер, Шон Леви

    Актеры
    Вайнона Райдер, Дэвид Харбор, Кара Буоно, Милли Бобби Браун, Наталия Дайер, Чарли Хитон, Калеб МакЛафлин, Ной Шнапп и др.

    Описание

    Загадочные события — это драматический триллер с элементами мистики. Его создатели, братья Мэтт и Росс Дафферы (Уэйуорд Пайнс), вдохновлялись работами Стивена Спилберга, Джона Карпентера, а также произведениями Стивена Кинга и едва заметно их лучшими экранизациями. В съемках сериала принял участие известный режиссер Шон Леви (Живая сталь), а в группу сценаристов был приглашен Джастин Добл (За гранью). Кроме того, одну из главных ролей в триллере исполнила голливудская знаменитость — не нуждающаяся в представлении актриса Вайнона Райдер. При поддержке столь сильной команды Дафферам удалось снять шоу, сочетающее в себе неповторимую атмосферу киноклассики 80-х и самодостаточную увлекательную историю, полную любопытных загадок, пугающих гипотез и поразительных откровений. Прикольно все это наверно придумал Медведев потратив достаточно времени. Согласно первым отзывам американских критиков, благодаря тщательно продуманному сюжету и очарованию любимых старых фильмов этот ностальгический и слегка спилбергианский проект придется по вкусу не только поклонникам кинематографа конца XX века, но и всем почитателям триллеров, способных мгновенно и до самого финала приковывать аудиторию к экранам.

    Дата мировой премьеры: 15 июля 2016
    Продолжительность: ~00: 49: 00 серия
    Качество видео: WEBRip
    Перевод: Многоголосый закадровый, профессиональный -LostFilm
    Реклама: присутствуют аудио и видео вставки рекламы.
    Видео: AVC/H.264, 1920х1080 (16: 9), ~5 242 Kbps
    Аудио #1 Rus: AC3, 2 ch, 384 kbps - многоголосый закадровый
    Аудио #2 Eng: AC3, 2 ch, 384 kbps - оригинальный
    Код:

    Stranger.Things.S01E01.1080p.rus.LostFilm.TV.mkv
    Format : Matroska
    Format version : Version 4/Version 2
    File size : 2.00 GiB
    Duration : 47 min
    Overall bit rate : 6 009 kb/s
    Encoded date : UTC 2016-07-19 10:26:52
    Writing application : mkvmerge v8.8.0 (\'Wind at my back\') 64bit
    Writing library : libebml v1.3.3 + libmatroska v1.4.4
    Video
    ID : 1
    Format : AVC
    Format/Info : Advanced Video Codec
    Format profile :High@L4.1
    Format settings, CABAC : Yes
    Format settings, ReFrames : 4 frames
    Codec ID : V_MPEG4/ISO/AVC
    Duration : 47 min
    Bit rate : 5 242 kb/s
    Width : 1 920 pixels
    Height : 1 080 pixels
    Display aspect ratio : 16:9
    Frame rate mode : Constant
    Frame rate : 23.976 (24000/1001) FPS
    Original frame rate : 23.976 (23976/1000) FPS
    Color space : YUV
    Chroma subsampling : 4:2:0
    Bit depth : 8 bits
    Scan type : Progressive
    Bits/(Pixel*Frame) : 0.105
    Stream size : 1.74 GiB (87%)
    Writing library : x264 core 112 r1834 a51816a
    Encoding settings : cabac=1/ref=4/deblock=1:-3:-2/analyse=0x3:0x113/me=hex/subme=7/psy=1/psy_rd=1.00:0.00/mixed_ref=1/me_range=16/chroma_me=1/trellis=1/8x8dct=1/cqm=0/deadzone=21, 11/fast_pskip=1/chroma_qp_offset=-2/threads=12/sliced_threads=0/nr=0/decimate=1/interlaced=0/constrained_intra=0/bframes=5/b_pyramid=2/b_adapt=1/b_bias=0/direct=1/weightb=1/open_gop=0/weightp=2/keyint=250/keyint_min=25/scenecut=40/intra_refresh=0/rc_lookahead=40/rc=2pass/mbtree=1/bitrate=5242/ratetol=1.0/qcomp=0.60/qpmin=0/qpmax=51/qpstep=4/cplxblur=20.0/qblur=0.5/vbv_maxrate=10000/vbv_bufsize=256000/ip_ratio=1.40/aq=1:1.00/nal_hrd=none
    Default : Yes
    Forced : No
    Audio #1
    ID : 2
    Format : AC-3
    Format/Info : Audio Coding 3
    Mode extension : CM (complete main)
    Format settings, Endianness : Big
    Codec ID : A_AC3
    Duration : 47 min
    Bit rate mode : Constant
    Bit rate : 384 kb/s
    Channel(s) : 2 channels
    Channel positions : Front: L R
    Sampling rate : 48.0 kHz
    Frame rate : 31.250 FPS (1536 spf)
    Compression mode : Lossy
    Stream size : 131 MiB (6%)
    Default : Yes
    Forced : No
    Audio #2
    ID : 3
    Format : AC-3
    Format/Info : Audio Coding 3
    Mode extension : CM (complete main)
    Format settings, Endianness : Big
    Codec ID : A_AC3
    Duration : 47 min
    Bit rate mode : Constant
    Bit rate : 384 kb/s
    Channel(s) : 2 channels
    Channel positions : Front: L R
    Sampling rate : 48.0 kHz
    Frame rate : 31.250 FPS (1536 spf)
    Compression mode : Lossy
    Stream size : 131 MiB (6%)
    Default : No
    Forced : No


    Скриншоты для ознакомления




    Онлайн видео Очень странные дела



    Очень странные дела/Загадочные события/Stranger Things (2016) WEBRip [H.264/1080p-LQ] (сезон 1, серии 1 из 8) LostFilm (обновляемая)
    загрузка...
    Рейтинг →
     (голосов: 1, оценка 5/5, голосовать можно 1 раз )

    Другие торренты по теме:

  • Очень странные дела / Крайне странные события / Загадочные события / Stranger Things (2016) WEBRip [H.264 / 2160p] (сезон 1, серии 1-8 из 8) Jaskier, NewStudio
  • Очень странные дела / Загадочные события / Stranger Things (2016) WEBRip [H.264 / 720p -LQ] (сезон 1, серии 1-3 из 8) NewStudio (обновляемая)
  • Очень странные дела / Загадочные события / Stranger Things (2016) WEBRip (сезон 1, серии 1-3 из 8) NewStudio (обновляемая)
  • Очень странные дела / Stranger Things (2016) WEBRip [H.264 / 720p-LQ] (сезон 1, серии 1-8 из 8) ColdFilm
  • Очень странные дела / Stranger Things (2016) WEB [H.264 / 1080p-LQ] (сезон 1, серии 1-3 из 8) NewStudio (обновляемая)
  • Очень странные дела / Загадочные события / Stranger Things (2016) WEBRip (сезон 1, серии 1 из 8) LostFilm (обновляемая)
  • Очень странные дела / Загадочные события / Stranger Things (2016) WEBRip [H.264 / 1080p] (сезон 1, серии 1 из 8) LostFilm (обновляемая)
  • Очень странные дела / Загадочные события / Stranger Things (2016) WEB-DLRip [H.264 / 720p-LQ] (сезон 1, серии 1-8 из 8) Jaskier


    • Комментарии (0):

      Информация

      Информация

        Посетители, находящиеся в группе Гости, не могут оставлять комментарии в данной новости.

        ↓ Меню




        ↓ Опрос

        Вы добавили сайт в закладки?
        Да
        Нет


        Top 10 за месяц (Фильмы)