.
Авторизация | Регистрация
Хочешь лучшие торренты? Добавь свой email!
Добавить

Торрент скачать бесплатно

» » Завучи / Vice Principals (2016) HDTV [H.264 / 720p-LQ] (сезон 1, серии 1 из 9) BaibaKo (обновляемая) торрент скачать бесплатно




    Завучи / Vice Principals (2016) HDTV [H.264 / 720p-LQ] (сезон 1, серии 1 из 9) BaibaKo (обновляемая) торрент скачать бесплатно

    Опубликовал: Админ | Дата: 20-07-2016, 04:00 | Просмотров: 377

    Производство: США
    Жанр: комедия
    Режиссер: Дэвид Гордон Грин, Дэнни МакБрайд

    Актеры
    Дэнни МакБрайд, Уолтон Гоггинс, Джорджия Кинг, Кимберли Хеберт Грегори и др.

    Описание

    Нил Гэмби и Ли Рассел – заместители директора школы Линкольн Хилл. Их начальница, Доктор Белинда Браун, могущественная и уверенная в себе женщина. И тем больше они желают свергнуть её. Им надоело, что на них сваливается, по сути, вся работа – от воплощения в жизнь выдумок ненавистной директрисы до составления учебной программы и поддержания дисциплины. Нил является идеологом школьного переворота, а Ли, как коварный политикан, вступает с ним в нечестивый союз.

    Дата мировой премьеры: 17 июля 2016

    Продолжительность: ~00: 30: 00 серия
    Качество видео: HDTV
    Перевод: Многоголосый закадровый, профессиональный -BaibaKo
    Реклама: присутствуют аудио, видео, текстовые вставки рекламы.
    Видео: AVC/H.264, 1280x716, ~2 513 kbps
    Аудио # 1 Rus: AC-3, 6 ch, 384 kbps, CBR - многоголосый закадровый
    Аудио # 2 Eng: AC-3, 6 ch, 384 kbps, CBR - оригинал
    Код:

    Vice.Principals.s01e01.HDTV720p.Rus.Eng.BaibaKo.tv.mkv
    Format : Matroska
    Format version : Version 4/Version 2
    File size : 722 MiB
    Duration : 31 min
    Overall bit rate : 3 236 kb/s
    Encoded date : UTC 2016-07-19 03:49:00
    Writing application : mkvmerge v9.3.1 (\'Mask Machine\') 64bit
    Writing library : libebml v1.3.4 + libmatroska v1.4.5
    Video
    ID : 1
    Format : AVC
    Format/Info : Advanced Video Codec
    Format profile :High@L3.1
    Format settings, CABAC : Yes
    Format settings, ReFrames : 4 frames
    Codec ID : V_MPEG4/ISO/AVC
    Duration : 30 min
    Bit rate : 2 513 kb/s
    Width : 1 280 pixels
    Height : 716 pixels
    Display aspect ratio : 16:9
    Frame rate mode : Constant
    Frame rate : 23.976 (23976/1000) FPS
    Color space : YUV
    Chroma subsampling : 4:2:0
    Bit depth : 8 bits
    Scan type : Progressive
    Bits/(Pixel*Frame) : 0.114
    Stream size : 552 MiB (76%)
    Writing library : x264 core 148 r2692 64f4e24
    Encoding settings : cabac=1/ref=3/deblock=1:0:0/analyse=0x3:0x113/me=hex/subme=7/psy=1/psy_rd=1.00:0.00/mixed_ref=1/me_range=16/chroma_me=1/trellis=1/8x8dct=1/cqm=0/deadzone=21, 11/fast_pskip=1/chroma_qp_offset=-2/threads=12/lookahead_threads=2/sliced_threads=0/nr=0/decimate=1/interlaced=0/bluray_compat=0/constrained_intra=0/bframes=3/b_pyramid=2/b_adapt=1/b_bias=0/direct=1/weightb=1/open_gop=0/weightp=2/keyint=240/keyint_min=23/scenecut=40/intra_refresh=0/rc_lookahead=40/rc=crf/mbtree=1/crf=18.0/qcomp=0.60/qpmin=0/qpmax=69/qpstep=4/ip_ratio=1.40/aq=1:1.00
    Default : No
    Forced : No
    Audio #1
    ID : 2
    Format : AC-3
    Format/Info : Audio Coding 3
    Mode extension : CM (complete main)
    Format settings, Endianness : Big
    Codec ID : A_AC3
    Duration : 31 min
    Bit rate mode : Constant
    Bit rate : 384 kb/s
    Channel(s) : 6 channels
    Channel positions : Front: L C R, Side: L R, LFE
    Sampling rate : 48.0 kHz
    Frame rate : 31.250 FPS (1536 spf)
    Compression mode : Lossy
    Stream size : 85.7 MiB (12%)
    Language : Russian
    Default : Yes
    Forced : No
    Audio #2
    ID : 3
    Format : AC-3
    Format/Info : Audio Coding 3
    Mode extension : CM (complete main)
    Format settings, Endianness : Big
    Codec ID : A_AC3
    Duration : 30 min
    Bit rate mode : Constant
    Bit rate : 384 kb/s
    Channel(s) : 6 channels
    Channel positions : Front: L C R, Side: L R, LFE
    Sampling rate : 48.0 kHz
    Frame rate : 31.250 FPS (1536 spf)
    Compression mode : Lossy
    Stream size : 84.3 MiB (12%)
    Language : English
    Default : No
    Forced : No


    Скриншоты для ознакомления




    Онлайн видео Завучи



    Завучи/Vice Principals (2016) HDTV [H.264/720p-LQ] (сезон 1, серии 1 из 9) BaibaKo (обновляемая)
    загрузка...
    Рейтинг →
     (голосов: 1, оценка 4/5, голосовать можно 1 раз )

    Другие торренты по теме:

  • Завучи / Vice Principals (2016) HDTVRip [H.264 / 720p-LQ] (сезон 1, серии 1 из 9) Кураж-Бамбей (обновляемая)
  • Завучи / Vice Principals (2016) HDTV [H.264 / 720p-LQ] (сезон 1, серии 1 из 9) OMSKBIRD (обновляемая)
  • Завучи / Vice Principals (2016) HDTVRip (сезон 1, серии 1 из 9) OMSKBIRD (обновляемая)
  • Завучи / Vice Principals (2016) HDTVRip [H.264 / 720p-LQ] (сезон 1, серии 1 из 9) NewStudio (обновляемая)
  • Завучи / Vice Principals (2016) HDTV [H.264 / 720p-LQ] (сезон 1, серии 1 из 9) IdeaFilm (обновляемая)
  • Завучи / Vice Principals (2016) HDTVRip (сезон 1, серии 1 из 9) NewStudio (обновляемая)
  • Завучи / Vice Principals (2017) WEB-DL [H.264 / 1080p-LQ] (сезон 2, серии 1 из 9) OMSKBIRD (обновляемая) [AD]


    • Комментарии (0):

      Информация

      Информация

        Посетители, находящиеся в группе Гости, не могут оставлять комментарии в данной новости.

        ↓ Меню




        ↓ Опрос

        Вы добавили сайт в закладки?
        Да
        Нет


        Top 10 за месяц (Фильмы)