.
Авторизация | Регистрация
Хочешь лучшие торренты? Добавь свой email!
Добавить

Торрент скачать бесплатно

» » Свой-чужой (2006) WEBRip (серии 1-12 из 12) торрент скачать бесплатно




    Свой-чужой (2006) WEBRip (серии 1-12 из 12) торрент скачать бесплатно

    Опубликовал: Админ | Дата: 20-07-2016, 04:00 | Просмотров: 264

    Производство: Россия Черепаха по заказу Централ Партнершип
    Жанр: Детектив, Криминал
    Режиссер: Сергей Попов

    Актеры
    Михаил Евланов, Александр Лымарев, Александр Дьяченко, Артур Ваха, Анна Дубровская, Андрей Дежонов, Александр Галибин, Андрей Смоляков, Николай Буров, Юрий Ицков и др...

    Описание

    Крестный отец крупной криминальной группировки, вполне легализовавший свой бизнес и ставший влиятельным банкиром, празднует свой день рождения. Вокруг друзья, соратники и любимые в разные годы женщины. Одно омрачает праздник – он знает, что в его организацию внедрился засланный казачок из правоохранительных структур. Он принимает решение ответить ударом на удар – отправить своего приемного сына на работу в прокуратуру, чтобы иметь своего осведомителя в стане врага…

    Возраст: 16+ (зрителям, достигшим 16 лет)
    Продолжительность: ~ 00: 52: 00 серия
    Качество видео: WEBRip
    Видео: Xvid, 720x400 (16: 9), ~1915 Kbps
    Аудио: AC3, 2 ch, 192 kbps, CBR
    Код:

    Общее
    Полное имя : D:Мои фильмыSvoj_Chuzhoj_1-12iz12_2006_XviD_WEBRipSvoj_Chuzhoj_01_WEBRip.avi
    Формат : AVI
    Формат/Информация : Audio Video Interleave
    Размер файла : 746 Мбайт
    Продолжительность : 49 м.
    Общий поток : 2117 Кбит/сек
    Программа кодирования : VirtualDubMod 1.5.10.3 (build 2550/release)
    Библиотека кодирования : VirtualDubMod build 2550/release
    Видео
    Идентификатор : 0
    Формат : MPEG-4 Visual
    Профиль формата : Advanced Simple@L5
    Параметр BVOP формата : 2
    Параметр QPel формата : Нет
    Параметр GMC формата : Без точки перехода
    Параметр матрицы формата : Default (H.263)
    Идентификатор кодека : XVID
    Идентификатор кодека/Подсказка : XviD
    Продолжительность : 49 м.
    Битрейт : 1915 Кбит/сек
    Ширина : 720 пикселей
    Высота : 400 пикселей
    Соотношение сторон : 16:9
    Частота кадров : 25, 000 кадров/сек
    Цветовое пространство : YUV
    Субдискретизация насыщенности : 4:2:0
    Битовая глубина : 8 бит
    Тип развёртки : Прогрессивная
    Метод сжатия : С потерями
    Бит/(Пиксели*Кадры) : 0.266
    Размер потока : 675 Мбайт (90%)
    Библиотека кодирования : XviD 67
    Аудио
    Идентификатор : 1
    Формат : AC-3
    Формат/Информация : Audio Coding 3
    Расширение режима : CM (complete main)
    Параметр Endianness формата : Big
    Идентификатор кодека : 2000
    Продолжительность : 49 м.
    Вид битрейта : Постоянный
    Битрейт : 192 Кбит/сек
    Каналы : 2 канала
    Расположение каналов : Front: L R
    Частота : 48, 0 КГц
    Частота кадров : 31, 250 кадров/сек (1536 spf)
    Метод сжатия : С потерями
    Размер потока : 67, 6 Мбайт (9%)
    Выравнивание : Разделение по промежуткам
    Продолжительность промежутка : 40 мс. (1, 00 видеокадр)
    Время предзагрузки промежутка : 500 мс.


    Скриншоты для ознакомления




    Онлайн видео Свой



    Свой-чужой (2006) WEBRip (серии 1-12 из 12)
    загрузка...
    Рейтинг →
     (голосов: 1, оценка 3/5, голосовать можно 1 раз )

    Другие торренты по теме:

  • Александр Мясников | Свой-чужой (2015) [MP3] скачать через торрент бесплатно
  • Свой чужой сын (2016) SATRip [H.264] (серии 1-4 из 4)
  • Свой чужой сын (2016) WEB-DLRip [H.264 / 1080p-LQ] (серии 1-4 из 4)
  • Специальный корреспондент. Свой-чужой (2017.03.06) SATRip
  • Свой-Чужой (2017) HDTVRip [H264 / 720p-LQ]
  • Свой среди чужих, чужой среди своих (1974) DVDRip [H.264] скачать через торрент бесплатно
  • Эдуард Артемьев - Свой Среди Чужих, Чужой Среди Своих (1975) [FLAC 2.0 16 / 44.1|tracks]<Stage & Screen> скачать через торрент бесплатно
  • Свой среди чужих, чужой среди своих (1974) HDDVDRip [H.264 / 720p]


    • Комментарии (0):

      Информация

      Информация

        Посетители, находящиеся в группе Гости, не могут оставлять комментарии в данной новости.

        ↓ Меню




        ↓ Опрос

        Вы добавили сайт в закладки?
        Да
        Нет


        Top 10 за месяц (Фильмы)