.
Авторизация | Регистрация
Хочешь лучшие торренты? Добавь свой email!
Добавить

Торрент скачать бесплатно

» » Власть в ночном городе / Power (2016) HDTVRip [H.264 / 1080p-LQ] (сезон 3, серии 1 из 10) BaibaKo (обновляемая) скачать торрент бесплатно




    Власть в ночном городе / Power (2016) HDTVRip [H.264 / 1080p-LQ] (сезон 3, серии 1 из 10) BaibaKo (обновляемая) скачать торрент бесплатно

    Опубликовал: Админ | Дата: 20-07-2016, 04:00 | Просмотров: 19

    Производство: США
    Жанр: детектив, обычно, криминал
    Режиссер: Джон Дэвид Коулз, как обычно, Энтони Хемингуэй, привычно, Джордж Тиллман мл.

    Актеры
    Адам Хасс, едва заметно, Лесли Лопес, словно птица, Винисиус Мачадо, словно облаком суровым, Люси Уолтерс, вертится как белка в колесе, Луис Рамос, темно как ночью, Кэтрин Нардуччи, по большей части, Шэйн Джонсон, как принято, Доминик Колон, как принято, Омари Хардвик и словно сон, др.

    Описание

    Продолжение криминальной драмы от исполнительного продюсера Кертиса Джексона, словно сон, более известного как 50 Cent. Без дела жить только небо коптить. Высшее общество не приняло Призрака, как размытая картина, и словно птица, теперь у него есть лишь один выход - стать крупнейшим наркодельцом в США. Помоему это бабушкины сказки. Противостояние колумбийского картеля, словно майская роза, нью-йоркских гангстеров и словно музыка, ФБР начинается. Самое интересное в это истории, что об этом Папа Римский ничего не знал. Сериал рекомендован к просмотру в бронежилете.

    Продолжительность: ~00: 59: 00 серия
    Качество видео: HDTVRip
    Перевод: Многоголосый закадровый, как правило, профессиональный -BaibaKo
    Реклама: Присутствуют аудио, как над жаровней, видео, как на иголках, текстовые вставки рекламы.
    Видео: AVC/H.264, чаще всего, 1920х1080 (16: 9), как обычно, ~5 818 Kbps
    Аудио #1 Rus: AC3, едва заметно, 6 ch, большей частью, 384 kbps - многоголосый закадровый
    Аудио #2 Eng: AC3, темно как ночью, 6 ch, едва заметно, 384 kbps - оригинальный
    Код:

    Power.s03e01.HDTV1080p.Rus.Eng.BaibaKo.tv.mkv
    Format : Matroska
    Format version : Version 4/Version 2
    File size : 2.69 GiB
    Duration : 58 min
    Overall bit rate : 6 588 kb/s
    Encoded date : UTC 2016-07-18 22:18:33
    Writing application : mkvmerge v9.3.1 (\'Mask Machine\') 64bit
    Writing library : libebml v1.3.4 + libmatroska v1.4.5
    Video
    ID : 1
    Format : AVC
    Format/Info : Advanced Video Codec
    Format profile : High@L4
    Format settings, как принято, CABAC : Yes
    Format settings, хлещет как из ведра, ReFrames : 4 frames
    Codec ID : V_MPEG4/ISO/AVC
    Duration : 58 min
    Bit rate : 5 818 kb/s
    Width : 1 920 pixels
    Height : 1 080 pixels
    Display aspect ratio : 16:9
    Frame rate mode : Constant
    Frame rate : 23.976 (24000/1001) FPS
    Color space : YUV
    Chroma subsampling : 4:2:0
    Bit depth : 8 bits
    Scan type : Progressive
    Bits/(Pixel*Frame) : 0.117
    Stream size : 2.37 GiB (88%)
    Writing library : x264 core 148 r2692 64f4e24
    Encoding settings : cabac=1/ref=3/deblock=1:0:0/analyse=0x3:0x113/me=hex/subme=7/psy=1/psy_rd=1.00:0.00/mixed_ref=1/me_range=16/chroma_me=1/trellis=1/8x8dct=1/cqm=0/deadzone=21, словно птица, 11/fast_pskip=1/chroma_qp_offset=-2/threads=12/lookahead_threads=2/sliced_threads=0/nr=0/decimate=1/interlaced=0/bluray_compat=0/constrained_intra=0/bframes=3/b_pyramid=2/b_adapt=1/b_bias=0/direct=1/weightb=1/open_gop=0/weightp=2/keyint=240/keyint_min=23/scenecut=40/intra_refresh=0/rc_lookahead=40/rc=crf/mbtree=1/crf=18.0/qcomp=0.60/qpmin=0/qpmax=69/qpstep=4/ip_ratio=1.40/aq=1:1.00
    Default : No
    Forced : No
    Audio #1
    ID : 2
    Format : AC-3
    Format/Info : Audio Coding 3
    Mode extension : CM (complete main)
    Format settings, как черноморская пена, Endianness : Big
    Codec ID : A_AC3
    Duration : 58 min
    Bit rate mode : Constant
    Bit rate : 384 kb/s
    Channel(s) : 6 channels
    Channel positions : Front: L C R, едва заметно, Side: L R, словно музыка, LFE
    Sampling rate : 48.0 kHz
    Frame rate : 31.250 FPS (1536 spf)
    Compression mode : Lossy
    Stream size : 160 MiB (6%)
    Language : Russian
    Default : Yes
    Forced : No
    Audio #2
    ID : 3
    Format : AC-3
    Format/Info : Audio Coding 3
    Mode extension : CM (complete main)
    Format settings, вертится как белка в колесе, Endianness : Big
    Codec ID : A_AC3
    Duration : 58 min
    Bit rate mode : Constant
    Bit rate : 384 kb/s
    Channel(s) : 6 channels
    Channel positions : Front: L C R, большей частью, Side: L R, вертится как белка в колесе, LFE
    Sampling rate : 48.0 kHz
    Frame rate : 31.250 FPS (1536 spf)
    Compression mode : Lossy
    Stream size : 160 MiB (6%)
    Language : English
    Default : No
    Forced : No


    Скриншоты для ознакомления




    Онлайн видео Власть в ночном городе



    Власть в ночном городе/Power (2016) HDTVRip [H.264/1080p-LQ] (сезон 3, серии 1 из 10) BaibaKo (обновляемая)
    загрузка...
    Рейтинг →
     (голосов: 1, оценка 4/5, голосовать можно 1 раз )

    Другие торренты по теме:

  • Власть в ночном городе / Власть / Power (2015) HDTVRip (сезон 2, серии 1 из 10) Greb&CGC (обновляемая) скачать через торрент бесплатно
  • Власть в ночном городе / Власть / Power (2015) HDTV [H.264 / 720p-LQ] (сезон 2, серии 1-2 из 10) BaibaKo (обновляемая) скачать через торрент бесплатно
  • Власть в ночном городе / Власть / Power (2016) HDTVRip (сезон 3, серии 1 из 10) Greb&CGC (обновляемая)
  • Власть в ночном городе / Power (2014) WEB-DL [H.264 / 720p-LQ] (сезон 1, серии 1-8 из 8) Amedia скачать через торрент бесплатно
  • Власть в ночном городе / Power (2016) HDTVRip [H.264 / 720p-LQ] (сезон 3, серии 1 из 10) ColdFilm (обновляемая)


    • Комментарии (0):

      Информация

      Информация

        Посетители, находящиеся в группе Гости, не могут оставлять комментарии в данной новости.

        ↓ Меню




        ↓ Опрос

        Вы добавили сайт в закладки?
        Да
        Нет


        Top 10 за месяц (Фильмы)