.
Авторизация | Регистрация
Хочешь лучшие торренты? Добавь свой email!
Добавить

Торрент скачать бесплатно

» » Власть в ночном городе / Власть / Power (2016) HDTVRip (сезон 3, серии 1 из 10) Greb&CGC (обновляемая) торрент скачать бесплатно




    Власть в ночном городе / Власть / Power (2016) HDTVRip (сезон 3, серии 1 из 10) Greb&CGC (обновляемая) торрент скачать бесплатно

    Опубликовал: Админ | Дата: 20-07-2016, 04:00 | Просмотров: 37

    Производство: США/CBS Television Studios
    Жанр: драма, криминал
    Режиссер: Джордж Тиллман мл., Майкл Дж. Бассетт, Сэнфорд Букставер

    Актеры
    Омари Хардвик, Джозеф Сикора, Лела Лорен, Нэтари Наутон, Энди Бин, Шэйн Джонсон, Люси Уолтерс, Дж.Р. Рамирез, Луис Рамос, Адам Хасс и др.

    Описание

    Продолжение криминальной драмы от исполнительного продюсера Кертиса Джексона, более известного как 50 Cent. Высшее общество не приняло Призрака, и теперь у него есть лишь один выход - стать крупнейшим наркодельцом в США. О таком странном сюжете не догадывалась даже Верка Сердючка. Противостояние колумбийского картеля, нью-йоркских гангстеров и ФБР начинается. Сериал рекомендован к просмотру в бронежилете.

    Продолжительность: ~00: 55: 00 серия
    Качество видео: HDTVRip
    Перевод: Многоголосый закадровый, профессиональный -Greb And Creative Group Company по заказу Amedia
    Видео: XviD, 720x400 (16: 9), ~1263 Kb/s
    Аудио Rus: MPEG Layer 3, 48, 0 kHz, 2 ch, 128 kb/s — многоголосый закадровый
    Аудио Eng: MPEG Layer 3, 48, 0 kHz, 2 ch, 128 kb/s — оригинал
    Код:

    Общее
    Полное имя : D:Власть в ночном городе (сезон любимого сериала 3) Power (2016) HDTVRip - AmediaPower.[S03E01].XviD.Amedia.[qqss44].avi
    Формат : AVI
    Формат/Информация : Audio Video Interleave
    Размер файла : 600 Мбайт
    Продолжительность : 54 м.
    Общий поток : 1533 Кбит/сек
    Программа кодирования : VirtualDubMod 1.5.10.3 |www.virtualdub-fr.org|| (build 2550/release)
    Библиотека кодирования : VirtualDubMod build 2550/release
    Видео
    Идентификатор : 0
    Формат : MPEG-4 Visual
    Профиль формата : Advanced Simple@L5
    Параметр BVOP формата : 2
    Параметр QPel формата : Нет
    Параметр GMC формата : Без точки перехода
    Параметр матрицы формата : Выборочная
    Идентификатор кодека : XVID
    Идентификатор кодека/Подсказка : XviD
    Продолжительность : 54 м.
    Битрейт : 1263 Кбит/сек
    Ширина : 720 пикселей
    Высота : 400 пикселей
    Соотношение сторон : 16:9
    Частота кадров : 25, 000 кадров/сек
    Цветовое пространство : YUV
    Субдискретизация насыщенности : 4:2:0
    Битовая глубина : 8 бит
    Тип развёртки : Прогрессивная
    Метод сжатия : С потерями
    Бит/(Пиксели*Кадры) : 0.175
    Размер потока : 494 Мбайт (82%)
    Библиотека кодирования : XviD 73
    Аудио #1
    Идентификатор : 1
    Формат : MPEG Audio
    Версия формата : Version 1
    Профиль формата : Layer 3
    Режим : Joint stereo
    Расширение режима : MS Stereo
    Идентификатор кодека : 55
    Идентификатор кодека/Подсказка : MP3
    Продолжительность : 54 м.
    Вид битрейта : Постоянный
    Битрейт : 128 Кбит/сек
    Каналы : 2 канала
    Частота : 48, 0 КГц
    Метод сжатия : С потерями
    Размер потока : 50, 1 Мбайт (8%)
    Выравнивание : Соединение по промежуткам
    Продолжительность промежутка : 40 мс. (1, 00 видеокадр)
    Время предзагрузки промежутка : 504 мс.
    Аудио #2
    Идентификатор : 2
    Формат : MPEG Audio
    Версия формата : Version 1
    Профиль формата : Layer 3
    Режим : Joint stereo
    Расширение режима : MS Stereo
    Идентификатор кодека : 55
    Идентификатор кодека/Подсказка : MP3
    Продолжительность : 54 м.
    Вид битрейта : Постоянный
    Битрейт : 128 Кбит/сек
    Каналы : 2 канала
    Частота : 48, 0 КГц
    Метод сжатия : С потерями
    Размер потока : 50, 1 Мбайт (8%)
    Выравнивание : Соединение по промежуткам
    Продолжительность промежутка : 40 мс. (1, 00 видеокадр)
    Время предзагрузки промежутка : 504 мс.


    Скриншоты для ознакомления




    Онлайн видео Власть в ночном городе



    Власть в ночном городе/Власть/Power (2016) HDTVRip (сезон 3, серии 1 из 10) Greb&CGC (обновляемая)
    загрузка...
    Рейтинг →
     (голосов: 1, оценка 5/5, голосовать можно 1 раз )

    Другие торренты по теме:

  • Власть в ночном городе / Власть / Power (2015) HDTVRip (сезон 2, серии 1 из 10) Greb&CGC (обновляемая) скачать через торрент бесплатно
  • Власть в ночном городе / Власть / Power (2015) HDTV [H.264 / 720p-LQ] (сезон 2, серии 1-2 из 10) BaibaKo (обновляемая) скачать через торрент бесплатно
  • Власть в ночном городе / Power (2014) WEB-DL [H.264 / 720p-LQ] (сезон 1, серии 1-8 из 8) Amedia скачать через торрент бесплатно
  • Власть в ночном городе / Power (2016) HDTVRip [H.264 / 720p-LQ] (сезон 3, серии 1 из 10) ColdFilm (обновляемая)
  • Власть в ночном городе / Power (2016) HDTVRip [H.264 / 1080p-LQ] (сезон 3, серии 1 из 10) BaibaKo (обновляемая)
  • Власть в ночном городе / Power (2017) WEBRip [H.264 / 1080p-LQ] (сезон 4, серии 1-4 из 10) Greb&CGC (обновляемая)


    • Комментарии (0):

      Информация

      Информация

        Посетители, находящиеся в группе Гости, не могут оставлять комментарии в данной новости.

        ↓ Меню




        ↓ Опрос

        Вы добавили сайт в закладки?
        Да
        Нет


        Top 10 за месяц (Фильмы)