.
Авторизация | Регистрация
Хочешь лучшие торренты? Добавь свой email!
Добавить

Торрент скачать бесплатно

» » Завучи / Vice Principals (2016) HDTVRip [H.264 / 720p-LQ] (сезон 1, серии 1 из 9) Кураж-Бамбей (обновляемая) торрент скачать бесплатно




    Завучи / Vice Principals (2016) HDTVRip [H.264 / 720p-LQ] (сезон 1, серии 1 из 9) Кураж-Бамбей (обновляемая) торрент скачать бесплатно

    Опубликовал: Админ | Дата: 19-07-2016, 04:01 | Просмотров: 127

    Производство: США/Home Box Office (HBO), Rough House Pictures
    Жанр: комедия
    Режиссер: Дэвид Гордон Грин, Дэнни МакБрайд

    Актеры
    Дэнни МакБрайд, Уолтон Гоггинс, Джорджия Кинг, Кимберли Хеберт Грегори, Шон МакКинни, Эди Паттерсон, Эшли Спайллерс, Сьюзэн Парк, Бизи Филиппс, Дженнифер Гатти и др.

    Описание

    Черная комедия про двух истеричных завучей средней школы, которые по иронии судьбы отвечают за дисциплину и учебный план. После того, как директор уходит на пенсию, завучи затевают эпическую борьбу за трон.

    Дата мировой премьеры: 17 июля 2016
    Продолжительность: ~00: 30: 00 серия
    Качество видео: HDTVRip 720p
    Перевод: одноголосый закадровый, профессиональный -Кураж-Бамбей
    Вид субтитров: вшитые отключаемые
    Язык субтитров: русский, английский
    Видео: H.264/AVC, 1280x716 (16: 9), ~2626 kb/s
    Аудио Rus: AC-3, 48, 0 kHz, 2 ch, 192 kb/s — одноголосый закадровый
    Аудио Eng: AC-3, 48, 0 kHz, 6 ch, 384 kb/s — оригинал
    Код:

    Общее
    Уникальный идентификатор : 184087658603938395552285860289026463396 (0x8A7DFE5019E265BF83255E3F695016A4)
    Полное имя : D:Завучи (сезон любимого сериала 1) Vice Principals (2016) HDTVRip 720p - Кураж-БамбейVice.Principals.[S01E01].720p.KB.[qqss44].mkv
    Формат : Matroska
    Версия формата : Version 2
    Размер файла : 667 Мбайт
    Продолжительность : 29 м.
    Общий поток : 3204 Кбит/сек
    Дата кодирования : UTC 2016-07-18 08:04:47
    Программа кодирования : mkvmerge v7.9.0 (\'Birds\') 64bit
    Библиотека кодирования : libebml v1.3.1 + libmatroska v1.4.2
    Видео
    Идентификатор : 1
    Формат : AVC
    Формат/Информация : Advanced Video Codec
    Профиль формата :High@L4.1
    Параметр CABAC формата : Да
    Параметр ReFrames формата : 5 кадров
    Идентификатор кодека : V_MPEG4/ISO/AVC
    Продолжительность : 29 м.
    Битрейт : 2626 Кбит/сек
    Ширина : 1280 пикселей
    Высота : 716 пикселей
    Соотношение сторон : 16:9
    Режим частоты кадров : Постоянный
    Частота кадров : 25, 000 кадров/сек
    Частота кадров в оригинале : 23, 976 (24000/1001) кадра/сек
    Цветовое пространство : YUV
    Субдискретизация насыщенности : 4:2:0
    Битовая глубина : 8 бит
    Тип развёртки : Прогрессивная
    Бит/(Пиксели*Кадры) : 0.115
    Размер потока : 546 Мбайт (82%)
    Библиотека кодирования : x264 core 148 r2705 3f5ed56
    Настройки программы : cabac=1/ref=5/deblock=1:0:0/analyse=0x3:0x113/me=umh/subme=8/psy=1/psy_rd=1.00:0.00/mixed_ref=1/me_range=16/chroma_me=1/trellis=1/8x8dct=1/cqm=0/deadzone=21, 11/fast_pskip=1/chroma_qp_offset=-2/threads=22/lookahead_threads=3/sliced_threads=0/nr=0/decimate=1/interlaced=0/bluray_compat=0/constrained_intra=0/bframes=3/b_pyramid=2/b_adapt=2/b_bias=0/direct=3/weightb=1/open_gop=0/weightp=2/keyint=250/keyint_min=23/scenecut=40/intra_refresh=0/rc_lookahead=50/rc=crf/mbtree=1/crf=18.0/qcomp=0.60/qpmin=0/qpmax=69/qpstep=4/ip_ratio=1.40/aq=1:1.00
    Язык : English
    Default : Да
    Forced : Нет
    Цветовой диапазон : Limited
    Коэффициенты матрицы : BT.709
    Аудио #1
    Идентификатор : 2
    Формат : AC-3
    Формат/Информация : Audio Coding 3
    Расширение режима : CM (complete main)
    Параметр Endianness формата : Big
    Идентификатор кодека : A_AC3
    Продолжительность : 29 м.
    Вид битрейта : Постоянный
    Битрейт : 192 Кбит/сек
    Каналы : 2 канала
    Расположение каналов : Front: L R
    Частота : 48, 0 КГц
    Частота кадров : 31, 250 кадров/сек (1536 spf)
    Метод сжатия : С потерями
    Размер потока : 39, 9 Мбайт (6%)
    Язык : Russian
    Default : Да
    Forced : Нет
    Аудио #2
    Идентификатор : 3
    Формат : AC-3
    Формат/Информация : Audio Coding 3
    Расширение режима : CM (complete main)
    Параметр Endianness формата : Big
    Идентификатор кодека : A_AC3
    Продолжительность : 29 м.
    Вид битрейта : Постоянный
    Битрейт : 384 Кбит/сек
    Каналы : 6 каналов
    Расположение каналов : Front: L C R, Side: L R, LFE
    Частота : 48, 0 КГц
    Частота кадров : 31, 250 кадров/сек (1536 spf)
    Метод сжатия : С потерями
    Размер потока : 79, 9 Мбайт (12%)
    Язык : English
    Default : Нет
    Forced : Нет
    Текст #1
    Идентификатор : 4
    Формат : UTF-8
    Идентификатор кодека : S_TEXT/UTF8
    Идентификатор кодека/Информация : UTF-8 Plain Text
    Продолжительность : 27 м.
    Битрейт : 170 бит/сек
    Count of elements : 585
    Размер потока : 34, 3 Кбайт (0%)
    Язык : Russian
    Default : Нет
    Forced : Нет
    Текст #2
    Идентификатор : 5
    Формат : UTF-8
    Идентификатор кодека : S_TEXT/UTF8
    Идентификатор кодека/Информация : UTF-8 Plain Text
    Продолжительность : 27 м.
    Битрейт : 114 бит/сек
    Count of elements : 739
    Размер потока : 23, 1 Кбайт (0%)
    Язык : English
    Default : Нет
    Forced : Нет


    Скриншоты для ознакомления




    Онлайн видео Завучи



    Завучи/Vice Principals (2016) HDTVRip [H.264/720p-LQ] (сезон 1, серии 1 из 9) Кураж-Бамбей (обновляемая)
    загрузка...
    Рейтинг →
     (голосов: 1, оценка 5/5, голосовать можно 1 раз )

    Другие торренты по теме:

  • Завучи / Vice Principals (2016) HDTV [H.264 / 720p-LQ] (сезон 1, серии 1 из 9) OMSKBIRD (обновляемая)
  • Завучи / Vice Principals (2016) HDTVRip (сезон 1, серии 1 из 9) OMSKBIRD (обновляемая)
  • Завучи / Vice Principals (2016) HDTV [H.264 / 720p-LQ] (сезон 1, серии 1 из 9) BaibaKo (обновляемая)
  • Завучи / Vice Principals (2016) HDTVRip [H.264 / 720p-LQ] (сезон 1, серии 1 из 9) NewStudio (обновляемая)
  • Завучи / Vice Principals (2016) HDTV [H.264 / 720p-LQ] (сезон 1, серии 1 из 9) IdeaFilm (обновляемая)
  • Завучи / Vice Principals (2016) HDTVRip (сезон 1, серии 1 из 9) NewStudio (обновляемая)
  • Завучи / Vice Principals (2017) WEB-DL [H.264 / 1080p-LQ] (сезон 2, серии 1 из 9) OMSKBIRD (обновляемая) [AD]


    • Комментарии (0):

      Информация

      Информация

        Посетители, находящиеся в группе Гости, не могут оставлять комментарии в данной новости.

        ↓ Меню




        ↓ Опрос

        Вы добавили сайт в закладки?
        Да
        Нет


        Top 10 за месяц (Фильмы)