.
Авторизация | Регистрация
Хочешь лучшие торренты? Добавь свой email!
Добавить

Торрент скачать бесплатно

» » В объезд / The Detour (2016) WEB-DL [H.264 / 1080p-LQ] (сезон 1, серии 1-5 из 10) BaibaKo (обновляемая) торрент скачать бесплатно




    В объезд / The Detour (2016) WEB-DL [H.264 / 1080p-LQ] (сезон 1, серии 1-5 из 10) BaibaKo (обновляемая) торрент скачать бесплатно

    Опубликовал: Админ | Дата: 19-07-2016, 04:01 | Просмотров: 39

    Производство: США
    Жанр: комедия
    Режиссер: Джефф Томсич, Стив Пинк, Бреннан Шрофф

    Актеры
    Джейсон Джонс, Натали Зи, Эшли Герасимович, Лайам Кэрролл, Мэри Грилл, Даниэлла Пинеда, Дэрин Купер, Фил Ривз, Деджа Ди, Тейлор Ковальски

    Описание

    Комедия В объезд напрямую замешана на путешествиях семьи Джонсонов. Саманта Би и её муж Джейсон, которого она не стесняется при посторонних называть идиотом, так и познакомились. А теперь их сынишка уже достаточно взрослый для того, чтобы взять без спросу машину отца, научиться ездить и разбить авто в хлам. Что же ответить, когда ребёнок задаёт сакраментальный вопрос: Откуда всё же берутся дети?, и если так хочется иногда и взрослому побыть придурком? Когда ещё это возможно, если не во время долгого путешествия от родного дома до Флориды? И не прямиком, а в объезд!

    Дата мировой премьеры: 11 апреля 2016
    Продолжительность: ~ 00: 30: 00 серия
    Качество видео: WEB-DL
    Перевод: Многоголосый закадровый, профессиональный -BaibaKo
    Реклама: Присутствуют аудио, видео, текстовые вставки рекламы.

    Видео: AVC/H.264, 1920х1080 (16: 9), ~5 074 Kbps
    Аудио #1 Rus: AC3, 6 ch, 384 kbps - многоголосый закадровый
    Аудио #2 Eng: AC3, 6 ch, 384 kbps - оригинальный
    Код:

    The.Detour.s01e01.HD1080p.WEB-DL.Rus.Eng.BaibaKo.tv.mkv
    Format : Matroska
    Format version : Version 4/Version 2
    File size : 913 MiB
    Duration : 22 min
    Overall bit rate : 5 776 kb/s
    Encoded date : UTC 2016-04-12 02:58:52
    Writing application : mkvmerge v8.9.0 (\'Father Daughter\') 64bit
    Writing library : libebml v1.3.3 + libmatroska v1.4.4
    Video
    ID : 1
    Format : AVC
    Format/Info : Advanced Video Codec
    Format profile : High@L4
    Format settings, CABAC : Yes
    Format settings, ReFrames : 4 frames
    Codec ID : V_MPEG4/ISO/AVC
    Duration : 21 min
    Bit rate : 5 074 kb/s
    Nominal bit rate : 4 126 kb/s
    Width : 1 920 pixels
    Height : 1 080 pixels
    Display aspect ratio : 16:9
    Frame rate mode : Constant
    Frame rate : 23.976 (24000/1001) FPS
    Color space : YUV
    Chroma subsampling : 4:2:0
    Bit depth : 8 bits
    Scan type : Progressive
    Bits/(Pixel*Frame) : 0.102
    Stream size : 792 MiB (87%)
    Writing library : x264 core 148 r2665 a01e339
    Encoding settings : cabac=1/ref=3/deblock=1:0:0/analyse=0x3:0x113/me=hex/subme=7/psy=1/psy_rd=1.00:0.00/mixed_ref=1/me_range=16/chroma_me=1/trellis=1/8x8dct=1/cqm=0/deadzone=21, 11/fast_pskip=1/chroma_qp_offset=-2/threads=12/lookahead_threads=2/sliced_threads=0/nr=0/decimate=1/interlaced=0/bluray_compat=0/constrained_intra=0/bframes=3/b_pyramid=2/b_adapt=1/b_bias=0/direct=1/weightb=1/open_gop=0/weightp=2/keyint=240/keyint_min=23/scenecut=40/intra_refresh=0/rc_lookahead=40/rc=2pass/mbtree=1/bitrate=4126/ratetol=1.0/qcomp=0.60/qpmin=0/qpmax=69/qpstep=4/cplxblur=20.0/qblur=0.5/ip_ratio=1.40/aq=1:1.00
    Default : No
    Forced : No
    Audio #1
    ID : 2
    Format : AC-3
    Format/Info : Audio Coding 3
    Mode extension : CM (complete main)
    Format settings, Endianness : Big
    Codec ID : A_AC3
    Duration : 22 min
    Bit rate mode : Constant
    Bit rate : 384 kb/s
    Channel(s) : 6 channels
    Channel positions : Front: L C R, Side: L R, LFE
    Sampling rate : 48.0 kHz
    Frame rate : 31.250 FPS (1536 spf)
    Compression mode : Lossy
    Stream size : 60.7 MiB (7%)
    Language : Russian
    Default : Yes
    Forced : No
    Audio #2
    ID : 3
    Format : AC-3
    Format/Info : Audio Coding 3
    Mode extension : CM (complete main)
    Format settings, Endianness : Big
    Codec ID : A_AC3
    Duration : 21 min
    Bit rate mode : Constant
    Bit rate : 384 kb/s
    Channel(s) : 6 channels
    Channel positions : Front: L C R, Side: L R, LFE
    Sampling rate : 48.0 kHz
    Frame rate : 31.250 FPS (1536 spf)
    Compression mode : Lossy
    Stream size : 59.9 MiB (7%)
    Language : English
    Default : No
    Forced : No


    Скриншоты для ознакомления




    Онлайн видео В объезд



    В объезд/The Detour (2016) WEB-DL [H.264/1080p-LQ] (сезон 1, серии 1-5 из 10) BaibaKo (обновляемая)
    загрузка...
    Рейтинг →
     (голосов: 1, оценка 3/5, голосовать можно 1 раз )

    Другие торренты по теме:

  • Объезд / Detour (2013) WEB-DLRip
  • Объезд / Detour (2013) WEB-DLRip скачать через торрент бесплатно
  • Объезд / Detour (2013) BDRip [720p] [EN] скачать через торрент бесплатно
  • Объезд / Detour (2013) BDRip [1080p] [EN]
  • В объезд / The Detour (2016) HDTV [H.264 / 720p-LQ] (сезон 1, серии 1-10 из 10) SunshineStudio


    • Комментарии (0):

      Информация

      Информация

        Посетители, находящиеся в группе Гости, не могут оставлять комментарии в данной новости.

        ↓ Меню




        ↓ Опрос

        Вы добавили сайт в закладки?
        Да
        Нет


        Top 10 за месяц (Фильмы)