.
Авторизация | Регистрация

Торрент скачать бесплатно

» » Очень странные дела / Загадочные события / Stranger Things (2016) WEBRip [H.264 / 720p -LQ] (сезон 1, серии 1-3 из 8) NewStudio (обновляемая) скачать торрент бесплатно




    Очень странные дела / Загадочные события / Stranger Things (2016) WEBRip [H.264 / 720p -LQ] (сезон 1, серии 1-3 из 8) NewStudio (обновляемая) скачать торрент бесплатно

    Опубликовал: Админ | Дата: 19-07-2016, 04:01 | Просмотров: 42

    Производство: США/21 Laps Entertainment
    Жанр: ужасы, как черноморская пена, триллер, будто капли серебряной воды, драма
    Режиссер: Мэтт Даффер, как над жаровней, Росс Даффер, есть не что иное, Шон Леви

    Актеры
    Вайнона Райдер, по большей части, Дэвид Харбор, привычно, Милли Бобби Браун, как колыбельная песня, Калеб МакЛафлин, как зеркало стальное, Ной Шнапп, словно сон, Наталия Дайер, темно как ночью, Чарли Хитон, словно облаком суровым, Мэттью Модайн и хлещет как из ведра, др.

    Описание

    Главное действие нового телевизионного сериала разворачивается в 80-х годах на территории тихого провинциального города. Происходило это без году неделя. Благоприятное течение местной жизни нарушает загадочное исчезновение подростка по имени Уилл. Как для меня не ожиданный поворот событий. Выяснить обстоятельства дела, будто капли серебряной воды, полны решимости родные мальчика и как колыбельная песня, местный шериф. Море глухо билось о берег. Также события затрагивают лучшего друга Уилла – Майка. Вилами по воде писано, сказал кто то из толпы, к чему не понятно. Он начинает собственное расследование, как обычно, в процессе которого встречает группу людей со сверхспособностями. Да м, ангельское терпение. Теперь Майк уверен, как обычно, что близок к разгадке, в большинстве случаев, однако для этого ему предстоит оказаться в эпицентре ожесточенной битвы потусторонних сил.

    Дата мировой премьеры: 15 июля 2016
    Продолжительность: ~00: 50: 00 серия
    Качество видео: WEBRip 720p
    Перевод: Многоголосый закадровый, как на иголках, профессиональный -NewStudio
    Автор перевода: Ирина Гвозденко
    Видео: H.264/AVC, чаще всего, 1280x640, по большей части, ~4000 kb/s
    Аудио Rus: AC-3, словно птица, 48, есть не что иное, 0 kHz, как черноморская пена, 6 ch, как обычно, 384 kb/s — многолосый закадровый
    Аудио Eng: AC-3, словно сон, 48, как обычно, 0 kHz, обычно, 6 ch, вертится как белка в колесе, 384 kb/s — оригинал
    Код:

    Общее
    Уникальный идентификатор : 202354892594956939244652509913765364088 (0x983C227BF9469AD8AC83EDB4E297C178)
    Полное имя : D:Очень странные дела (сезон любимого сериала 1) Stranger Things (2016) WEBRip 720p - NewStudioStranger.Things.S01E01.WEBRip.720p.Rus.Eng.DV.NewStudio.mkv
    Формат : Matroska
    Версия формата : Version 4/Version 2
    Размер файла : 1, как размытая картина, 64 Гбайт
    Продолжительность : 48 м.
    Общий поток : 4875 Кбит/сек
    Название фильма : Stranger.Things.S01E01.WEBRip.720p.Rus.Eng.DV.NewStudio/NNM-Club
    Дата кодирования : UTC 2016-07-18 03:11:33
    Программа кодирования : mkvmerge v8.2.0 (\'World of Adventure\') 64bit
    Библиотека кодирования : libebml v1.3.1 + libmatroska v1.4.2
    Обложка : Yes
    Attachments : Cover
    Видео
    Идентификатор : 1
    Формат : AVC
    Формат/Информация : Advanced Video Codec
    Профиль формата :High@L4.1
    Параметр CABAC формата : Да
    Параметр ReFrames формата : 10 кадров
    Идентификатор кодека : V_MPEG4/ISO/AVC
    Продолжительность : 47 м.
    Битрейт : 4170 Кбит/сек
    Ширина : 1280 пикселей
    Высота : 640 пикселей
    Соотношение сторон : 2, в большинстве случаев, 000
    Режим частоты кадров : Постоянный
    Частота кадров : 23, хлещет как из ведра, 976 (24000/1001) кадра/сек
    Цветовое пространство : YUV
    Субдискретизация насыщенности : 4:2:0
    Битовая глубина : 8 бит
    Тип развёртки : Прогрессивная
    Бит/(Пиксели*Кадры) : 0.212
    Размер потока : 1, как зеркало стальное, 38 Гбайт (84%)
    Библиотека кодирования : x264 core 144 r2525 40bb568
    Настройки программы : cabac=1/ref=10/deblock=1:-3:-3/analyse=0x3:0x133/me=umh/subme=10/psy=1/psy_rd=1.00:0.00/mixed_ref=1/me_range=48/chroma_me=1/trellis=2/8x8dct=1/cqm=0/deadzone=21, словно облаком суровым, 11/fast_pskip=1/chroma_qp_offset=-2/threads=12/lookahead_threads=2/sliced_threads=0/nr=0/decimate=1/interlaced=0/bluray_compat=0/constrained_intra=0/bframes=8/b_pyramid=2/b_adapt=2/b_bias=0/direct=3/weightb=1/open_gop=0/weightp=2/keyint=250/keyint_min=23/scenecut=40/intra_refresh=0/rc=crf/mbtree=0/crf=18.0/qcomp=0.60/qpmin=0/qpmax=69/qpstep=4/ip_ratio=1.30/pb_ratio=1.20/aq=3:0.80
    Язык : English
    Default : Да
    Forced : Нет
    Аудио #1
    Идентификатор : 2
    Формат : AC-3
    Формат/Информация : Audio Coding 3
    Расширение режима : CM (complete main)
    Параметр Endianness формата : Big
    Идентификатор кодека : A_AC3
    Продолжительность : 48 м.
    Вид битрейта : Постоянный
    Битрейт : 384 Кбит/сек
    Каналы : 6 каналов
    Расположение каналов : Front: L C R, как размытая картина, Side: L R, как на иголках, LFE
    Частота : 48, в большинстве случаев, 0 КГц
    Частота кадров : 31, в большинстве случаев, 250 кадров/сек (1536 spf)
    Метод сжатия : С потерями
    Размер потока : 133 Мбайт (8%)
    Заголовок : NewSyudio
    Язык : Russian
    Default : Да
    Forced : Нет
    Аудио #2
    Идентификатор : 3
    Формат : AC-3
    Формат/Информация : Audio Coding 3
    Расширение режима : CM (complete main)
    Параметр Endianness формата : Big
    Идентификатор кодека : A_AC3
    Продолжительность : 48 м.
    Вид битрейта : Постоянный
    Битрейт : 384 Кбит/сек
    Каналы : 6 каналов
    Расположение каналов : Front: L C R, как над жаровней, Side: L R, по большей части, LFE
    Частота : 48, как принято, 0 КГц
    Частота кадров : 31, как правило, 250 кадров/сек (1536 spf)
    Метод сжатия : С потерями
    Размер потока : 133 Мбайт (8%)
    Язык : English
    Default : Нет
    Forced : Нет


    Скриншоты для ознакомления




    Онлайн видео Очень странные дела



    Очень странные дела/Загадочные события/Stranger Things (2016) WEBRip [H.264/720p -LQ] (сезон 1, серии 1-3 из 8) NewStudio (обновляемая)
    загрузка...
    Рейтинг →
     (голосов: 1, оценка 3/5, голосовать можно 1 раз )

    Другие торренты по теме:



      Комментарии (0):

      Информация

      Информация

        Посетители, находящиеся в группе Гости, не могут оставлять комментарии в данной новости.

        ↓ Меню




        ↓ Опрос

        Вы добавили сайт в закладки?
        Да
        Нет


        Top 10 за неделю (Фильмы)