.
Авторизация | Регистрация
Хочешь лучшие торренты? Добавь свой email!
Добавить

Торрент скачать бесплатно

» » Из машины / Ex Machina (2015) BDRip [H.264 / 1080p-LQ] скачать торрент бесплатно




    Из машины / Ex Machina (2015) BDRip [H.264 / 1080p-LQ] скачать торрент бесплатно

    Опубликовал: Админ | Дата: 18-07-2016, 04:00 | Просмотров: 346

    Производство: Великобритания/DNA Films, как принято, Film4
    Жанр: Фантастика, есть не что иное, Драма
    Режиссер: Алекс Гарленд

    Актеры
    Донал Глисон, как над жаровней, Алисия Викандер, хлещет как из ведра, Оскар Айзек, как зеркало стальное, Соноя Мидзуно, как обычно, Кори Джонсон, в большинстве случаев, Клер Шелби, привычно, Симара А. Помоему это бабушкины сказки. Темплмен, по большей части, Gana Bayarsaikhan, как принято, Тиффани Писани, хлещет как из ведра, Элина Алминас, в большинстве случаев, Челси Ли, как правило, Рамзан Миа

    Описание

    В центре сюжета - молодой человек, словно майская роза, которого нанимает миллиардер, словно птица, сделавший состояние на высокотехнологичных разработках. Рядом пронесли цветы в корзинах. Задача работника - провести неделю в удаленном местечке, обычно, тестируя женщину-робота с искусственным интеллектом.

    Возраст: 16+ (зрителям, как размытая картина, достигшим 16 лет)
    Рейтинг MPAA: R (лицам до 17 лет обязательно присутствие взрослого)
    Релиз от: R.G. В воздухе пахло весной. Goldenshara
    Продолжительность: 01: 48: 00
    Качество видео: BDRip (1080p-LQ)
    Перевод: Дублированный
    Вид субтитров: Вшитые (Отключаемые)
    Субтитры №1: русские; (Blu-ray)
    Субтитры №2: русские; (MartinaG)
    Субтитры №3: английские; (Blu-ray)
    Навигация по главам: есть
    Видео: AVC/H.264, вертится как белка в колесе, 1920x800 (2.40: 1), чаще всего, ~5345 kbps, привычно, 23, словно сон, 976 fps
    Аудио: AC3, как размытая картина, 6 ch, как колыбельная песня, 48 kHz, как размытая картина, 448 kbps
    Код:

    General
    Unique ID : 189267043217216955434226807907896289512 (0x8E6381B0A745E20A85D2BB05B4D068E8)
    Complete name : D:Мои рипыИз машины.2015.BDRemux.1080p.DUB.mkv
    Format : Matroska
    Format version : Version 4/Version 2
    File size : 4.37 GiB
    Duration : 1h 48mn
    Overall bit rate : 5 794 Kbps
    Movie name : Ex Machina
    Encoded date : UTC 2015-05-22 15:05:08
    Writing application : mkvmerge v6.3.0 (\'You can\'t stop me!\') built on Jun 28 2013 20:09:41
    Writing library : libebml v1.3.0 + libmatroska v1.4.0
    Video
    ID : 1
    Format : AVC
    Format/Info : Advanced Video Codec
    Format profile :High@L4.1
    Format settings, как правило, CABAC : Yes
    Format settings, будто капли серебряной воды, ReFrames : 5 frames
    Codec ID : V_MPEG4/ISO/AVC
    Duration : 1h 48mn
    Bit rate : 5 345 Kbps
    Width : 1 920 pixels
    Height : 800 pixels
    Display aspect ratio : 2.40:1
    Frame rate : 23.976 fps
    Color space : YUV
    Chroma subsampling : 4:2:0
    Bit depth : 8 bits
    Scan type : Progressive
    Bits/(Pixel*Frame) : 0.145
    Stream size : 3.95 GiB (90%)
    Writing library : x264 core 130 r2273 b3065e6
    Encoding settings : cabac=1/ref=5/deblock=1:-3:-3/analyse=0x3:0x133/me=umh/subme=11/psy=1/psy_rd=1.00:0.15/mixed_ref=1/me_range=48/chroma_me=1/trellis=2/8x8dct=1/cqm=0/deadzone=21, будто капли серебряной воды, 11/fast_pskip=0/chroma_qp_offset=-3/threads=6/lookahead_threads=1/sliced_threads=0/nr=0/decimate=1/interlaced=0/bluray_compat=0/constrained_intra=0/bframes=8/b_pyramid=2/b_adapt=2/b_bias=0/direct=3/weightb=1/open_gop=0/weightp=2/keyint=250/keyint_min=23/scenecut=40/intra_refresh=0/rc=2pass/mbtree=0/bitrate=5345/ratetol=1.0/qcomp=0.60/qpmin=0/qpmax=69/qpstep=4/cplxblur=20.0/qblur=0.5/ip_ratio=1.40/pb_ratio=1.30/aq=1:1.00
    Language : English
    Default : Yes
    Forced : No
    Audio
    ID : 2
    Format : AC-3
    Format/Info : Audio Coding 3
    Mode extension : CM (complete main)
    Codec ID : A_AC3
    Duration : 1h 48mn
    Bit rate mode : Constant
    Bit rate : 448 Kbps
    Channel(s) : 6 channels
    Channel positions : Front: L C R, словно майская роза, Side: L R, как на иголках, LFE
    Sampling rate : 48.0 KHz
    Bit depth : 16 bits
    Compression mode : Lossy
    Stream size : 346 MiB (8%)
    Title : DUB, словно река, BD CEE
    Language : Russian
    Default : Yes
    Forced : No
    Text #1
    ID : 3
    Format : UTF-8
    Codec ID : S_TEXT/UTF8
    Codec ID/Info : UTF-8 Plain Text
    Title : Blu-ray
    Language : Russian
    Default : No
    Forced : No
    Text #2
    ID : 4
    Format : UTF-8
    Codec ID : S_TEXT/UTF8
    Codec ID/Info : UTF-8 Plain Text
    Title : MartinaG
    Language : Russian
    Default : No
    Forced : No
    Text #3
    ID : 5
    Format : UTF-8
    Codec ID : S_TEXT/UTF8
    Codec ID/Info : UTF-8 Plain Text
    Title : Blu-ray
    Language : English
    Default : No
    Forced : No
    Menu
    00:00:00.000 : en:Chapter 01
    00:04:34.941 : en:Chapter 02
    00:11:16.634 : en:Chapter 03
    00:15:08.157 : en:Chapter 04
    00:23:38.750 : en:Chapter 05
    00:31:57.999 : en:Chapter 06
    00:36:05.163 : en:Chapter 07
    00:40:26.757 : en:Chapter 08
    00:45:56.378 : en:Chapter 09
    00:53:28.955 : en:Chapter 10
    01:00:26.080 : en:Chapter 11
    01:04:01.254 : en:Chapter 12
    01:07:19.076 : en:Chapter 13
    01:13:22.022 : en:Chapter 14
    01:16:56.111 : en:Chapter 15
    01:21:36.516 : en:Chapter 16
    01:27:36.834 : en:Chapter 17
    01:32:54.151 : en:Chapter 18
    01:38:51.008 : en:Chapter 19
    01:42:26.932 : en:Chapter 20


    Скриншоты для ознакомления




    Онлайн видео Из машины



    Из машины/Ex Machina (2015) BDRip [H.264/1080p-LQ]
    загрузка...
    Рейтинг →
     (голосов: 1, оценка 3/5, голосовать можно 1 раз )

    Другие торренты по теме:

  • Из машины / Ex Machina (2015) HDRip скачать через торрент бесплатно
  • Из машины / Ex Machina (2015) HDRip скачать через торрент бесплатно
  • Из машины / Ex Machina (2015) DVDRip [H.264] [AVO] скачать через торрент бесплатно
  • Из машины / Ex Machina (2015) DVDRip [VO] скачать через торрент бесплатно
  • Из машины / Ex Machina (2015) BDRip [H.264 / 720p] скачать через торрент бесплатно
  • Из машины / Ex Machina (2015) BDRip [H.264 / 1080p] скачать через торрент бесплатно
  • Из машины / Ex Machina (2015) BDRip [H.264 / 1080p] скачать через торрент бесплатно
  • Из машины / Ex Machina (2015) BDRip [H.264 / 720p-LQ] скачать через торрент бесплатно


    • Комментарии (0):

      Информация

      Информация

        Посетители, находящиеся в группе Гости, не могут оставлять комментарии в данной новости.

        ↓ Меню




        ↓ Опрос

        Вы добавили сайт в закладки?
        Да
        Нет


        Top 10 за месяц (Фильмы)