.
Авторизация | Регистрация
Хочешь лучшие торренты? Добавь свой email!
Добавить

Торрент скачать бесплатно

» » Сила воли / Race (2016) HDRip торрент скачать бесплатно




    Сила воли / Race (2016) HDRip торрент скачать бесплатно

    Опубликовал: Админ | Дата: 18-07-2016, 04:00 | Просмотров: 45

    Производство: Канада, Германия, Forecast Pictures, JoBro Productions Film Finance
    Жанр: Драма, биография, спорт
    Режиссер: Стивен Хопкинс

    Актеры
    Стэфан Джеймс, Джейсон Судейкис, Эли Гори, Шанис Бэнтон, Кэрис ван Хаутен, Джереми Айронс, Уильям Хёрт, Давид Кросс, Джонатан Хиггинс, Тони Кёрран

    Описание

    Правдивая история легендарного чернокожего атлета Джесси Оуэнса, чье невероятное упорство привело его на Олимпийские игры 1936 года в нацистском Берлине. Встретившиеся на его пути преграды и как на иголках искушения — ничто в сравнении с грандиозным забегом, за которым следил весь мир. Затаив дыхание, одни надеялись на победу Джесси как на символ справедливости и достоинства, а другие жаждали его поражения во имя триумфа идеологии. Несколько секунд — и Джесси ворвался в историю, бросив дерзкий вызов самому Гитлеру.

    Возраст: 12+ (зрителям, достигшим 12 лет)
    Рейтинг MPAA: PG-13 (детям до 13 лет просмотр нежелателен)
    Дата мировой премьеры: 11 февраля 2016
    Дата российской премьеры: 14 июля 2016, Артхаус
    Продолжительность: 02: 13: 51
    Качество видео: HDRip
    Перевод: Многоголосый закадровый, любительский (СПД)
    Реклама: Имеется реклама от спонсора показа
    Видео: Xvid, 720x304, ~1261 Кбит/с
    Аудио: AC3, 2 ch, 192 Кбит/с, CBR
    Код:

    General
    Complete name : D:DownloadsRace.2O16.P.HDRip.14OOMB.avi
    Format : AVI
    Format/Info : Audio Video Interleave
    File size : 1.37 GiB
    Duration : 2h 13mn
    Overall bit rate : 1 462 Kbps
    Writing application : VirtualDubMod 1.5.10.2 (build 2540/release)
    Writing library : VirtualDubMod build 2540/release
    Video
    ID : 0
    Format : MPEG-4 Visual
    Format profile : Advanced Simple@L5
    Format settings, BVOP : 2
    Format settings, QPel : No
    Format settings, GMC : No warppoints
    Format settings, Matrix : Default (MPEG)
    Codec ID : XVID
    Codec ID/Hint : XviD
    Duration : 2h 13mn
    Bit rate : 1 261 Kbps
    Width : 720 pixels
    Height : 304 pixels
    Display aspect ratio : 2.35:1
    Frame rate : 23.976 (24000/1001) fps
    Color space : YUV
    Chroma subsampling : 4:2:0
    Bit depth : 8 bits
    Scan type : Progressive
    Compression mode : Lossy
    Bits/(Pixel*Frame) : 0.240
    Stream size : 1.18 GiB (86%)
    Writing library : XviD 1.2.1 (UTC 2008-12-04)
    Audio
    ID : 1
    Format : AC-3
    Format/Info : Audio Coding 3
    Mode extension : CM (complete main)
    Format settings, Endianness : Big
    Codec ID : 2000
    Duration : 2h 13mn
    Bit rate mode : Constant
    Bit rate : 192 Kbps
    Channel(s) : 2 channels
    Channel positions : Front: L R
    Sampling rate : 48.0 KHz
    Frame rate : 31.250 fps (1536 spf)
    Compression mode : Lossy
    Stream size : 184 MiB (13%)
    Alignment : Split accross interleaves
    Interleave, duration : 42 ms (1.00 video frame)
    Interleave, preload duration : 500 ms

    Скриншоты для ознакомления



    Все одноименные релизы в Клубе
    Время раздачи: 24/7 (до появления первых 30-50 скачавших)

    Сила воли/Race (2016) HDRip
    загрузка...
    Рейтинг →
     (голосов: 1, оценка 3/5, голосовать можно 1 раз )

    Другие торренты по теме:

  • Келли Виннер | Сила воли. Руководство по управлению собой (2015) [FB2]
  • Сила воли / Race (2016) BDRip [H.264]
  • Сила воли / Race (2016) BDRip [H.264 / 1080p]
  • Сила воли / Race (2016) HDRip [AVO]
  • Сила воли / Race (2016) BDRip [H.264 / 1080p]
  • Сила воли / Race (2016) HDRip
  • Сила воли / Race (2016) BDRemux [H.264 / 1080p]
  • Сила воли / Race (2016) BDRip [H.264 / 1080p-LQ]


    • Комментарии (0):

      Информация

      Информация

        Посетители, находящиеся в группе Гости, не могут оставлять комментарии в данной новости.

        ↓ Меню




        ↓ Опрос

        Вы добавили сайт в закладки?
        Да
        Нет


        Top 10 за месяц (Фильмы)