.
Авторизация | Регистрация
Хочешь лучшие торренты? Добавь свой email!
Добавить

Торрент скачать бесплатно

» » Реверс 666 / Exeter (2015) BDRip [H.264 / 1080p-LQ] торрент скачать бесплатно




    Реверс 666 / Exeter (2015) BDRip [H.264 / 1080p-LQ] торрент скачать бесплатно

    Опубликовал: Админ | Дата: 18-07-2016, 04:00 | Просмотров: 67

    Производство: США/Vicarious Entertainment
    Жанр: Ужасы, Триллер
    Режиссер: Маркус Ниспел

    Актеры
    Стивен Лэнг, Кевин Чэпмен, Келли Блац, Бриттани Каррен, Бретт Дир, Гейдж Голайтли, Ник Нак, Ник Норделла, Майкл Ормсби, Дженнифер Сайпс, Карина Джанкер, Мередит Прунти

    Описание

    От режиссера Пятница 13-е и Техасская резня бензопилой и производителей Паранормального явления приходит новый ужас. Во время разгульной и наркотической вечеринки в заброшенном сумасшедшем доме, известном ужасным лечением своих пациентов, группа обычных подростков решила поэкспериментировать с оккультизмом. Подобный эксперимент загадочно привёл к насильственному овладеванию дьяволом их разумом. В попытке найти помощь, подростки бросаются бежать, только не тут-то было. О таком странном сюжете не догадывалась даже Бейонсе. Они оказались заперты без каких-либо средств связи. Страсти вспыхивают, дружба сломана и в попытке спасти одного из своих друзей, которым овладел демон, любители вечеринок попытались выполнить обряд экзорцизма. Вместо того чтобы решить проблему, из-за своей тупости, они развязали еще более мощного и мстительного духа, имеющего единственное желание - умертвить их всех. Единственный шанс подростков на выживание - это раскрыть страшную тайну сумасшедшего дома и найти путь оттуда, прежде чем это станет слишком поздно.

    Возраст: 18+ (зрителям, достигшим 18 лет. запрещено для детей)
    Рейтинг MPAA: R (лицам до 17 лет обязательно присутствие взрослого)
    Релиз от: R.G. Goldenshara
    Продолжительность: 01: 31: 40
    Качество видео: BDRip (1080p-LQ)
    Перевод: Дублированный (официальный звук)
    Навигация по главам: есть
    Видео: AVC/H.264, 1920x1080 (16: 9), ~6631 kbps, 23, 976 fps
    Аудио: AC3, 2 ch, 48 kHz, 192 kbps
    Код:

    General
    Unique ID : 230668012003948389527526591540272177310 (0xAD890B0C14572B6BA991FBDA0FA2209E)
    Complete name : D:Мои рипыРеверс 666.2015.BDRip.1080p.DUB.mkv
    Format : Matroska
    Format version : Version 4/Version 2
    File size : 4.36 GiB
    Duration : 1h 31mn
    Overall bit rate : 6 815 Kbps
    Movie name : RARBG.COM - Exeter.2015.1080p.BluRay.REMUX.AVC.DTS-HD.MA.5.1-RARBG
    Encoded date : UTC 2016-02-20 22:39:25
    Writing application : mkvmerge v6.3.0 (\'You can\'t stop me!\') built on Jun 28 2013 20:09:41
    Writing library : libebml v1.3.0 + libmatroska v1.4.0
    Video
    ID : 1
    Format : AVC
    Format/Info : Advanced Video Codec
    Format profile :High@L4.1
    Format settings, CABAC : Yes
    Format settings, ReFrames : 4 frames
    Codec ID : V_MPEG4/ISO/AVC
    Duration : 1h 31mn
    Bit rate : 6 631 Kbps
    Width : 1 920 pixels
    Height : 1 080 pixels
    Display aspect ratio : 16:9
    Frame rate mode : Constant
    Frame rate : 23.976 fps
    Color space : YUV
    Chroma subsampling : 4:2:0
    Bit depth : 8 bits
    Scan type : Progressive
    Bits/(Pixel*Frame) : 0.133
    Stream size : 4.15 GiB (95%)
    Writing library : x264 core 130 r2273 b3065e6
    Encoding settings : cabac=1/ref=4/deblock=1:-3:-3/analyse=0x3:0x133/me=umh/subme=11/psy=1/psy_rd=1.00:0.15/mixed_ref=1/me_range=48/chroma_me=1/trellis=2/8x8dct=1/cqm=0/deadzone=21, 11/fast_pskip=0/chroma_qp_offset=-4/threads=6/lookahead_threads=1/sliced_threads=0/nr=0/decimate=1/interlaced=0/bluray_compat=0/constrained_intra=0/bframes=8/b_pyramid=2/b_adapt=2/b_bias=0/direct=2/weightb=1/open_gop=0/weightp=2/keyint=250/keyint_min=23/scenecut=40/intra_refresh=0/rc=2pass/mbtree=0/bitrate=6631/ratetol=1.0/qcomp=0.80/qpmin=0/qpmax=69/qpstep=4/cplxblur=20.0/qblur=0.5/ip_ratio=1.40/pb_ratio=1.30/aq=2:1.00
    Language : English
    Default : Yes
    Forced : No
    Color primaries : Generic film
    Matrix coefficients : YCgCo
    Audio
    ID : 2
    Format : AC-3
    Format/Info : Audio Coding 3
    Mode extension : CM (complete main)
    Format settings, Endianness : Big
    Codec ID : A_AC3
    Duration : 1h 31mn
    Bit rate mode : Constant
    Bit rate : 192 Kbps
    Channel(s) : 2 channels
    Channel positions : Front: L R
    Sampling rate : 48.0 KHz
    Bit depth : 16 bits
    Compression mode : Lossy
    Stream size : 126 MiB (3%)
    Title : Дубляж
    Language : Russian
    Default : Yes
    Forced : No
    Menu
    00:00:00.000 : en:Chapter 01
    00:09:42.206 : en:Chapter 02
    00:19:23.829 : en:Chapter 03
    00:30:33.832 : en:Chapter 04
    00:42:04.313 : en:Chapter 05
    00:52:29.062 : en:Chapter 06
    01:05:54.909 : en:Chapter 07
    01:14:08.986 : en:Chapter 08


    Скриншоты для ознакомления




    Онлайн видео Реверс 666



    Реверс 666/Exeter (2015) BDRip [H.264/1080p-LQ]
    загрузка...
    Рейтинг →
     (голосов: 1, оценка 4/5, голосовать можно 1 раз )

    Другие торренты по теме:

  • Психушка (Реверс) The Asylum (Backmask, Exeter) (2015) WEB-DL [H.264 / 720р-LQ] скачать через торрент бесплатно
  • Психушка (Реверс) The Asylum (Backmask, Exeter) (2015) WEB-DLRip [VO] скачать через торрент бесплатно


    • Комментарии (0):

      Информация

      Информация

        Посетители, находящиеся в группе Гости, не могут оставлять комментарии в данной новости.

        ↓ Меню




        ↓ Опрос

        Вы добавили сайт в закладки?
        Да
        Нет


        Top 10 за месяц (Фильмы)