.
Авторизация | Регистрация
Хочешь лучшие торренты? Добавь свой email!
Добавить

Торрент скачать бесплатно

» » Мистер Робот / Mr. Robot (2016) WEB-DLRip (сезон 2, серии 1-2 из 12) LostFilm (обновляемая) торрент скачать бесплатно




    Мистер Робот / Mr. Robot (2016) WEB-DLRip (сезон 2, серии 1-2 из 12) LostFilm (обновляемая) торрент скачать бесплатно

    Опубликовал: Админ | Дата: 18-07-2016, 04:00 | Просмотров: 101

    Производство: США/Universal Cable Productions
    Жанр: триллер, драма, криминал
    Режиссер: Сэм Эсмейл, Джим МакКэй, Тришиа Брок

    Актеры
    Рами Малек, Кристиан Слэйтер, Карли Чаикин, Портия Даблдэй, Мартин Волстром, Стефани Корнелиуссен, Майкл Кристофер, Грэйс Гаммер, Майкл Гилл, Рон Сепас Джонс и др.

    Описание

    История молодого программиста Эллиота, страдающего диссоциальным расстройством личности и решившего, что единственный приемлемый для него способ взаимодействия с людьми — это профессия хакера. Таким образом, он быстро оказывается в том самом месте, где пересекаются интересы его работодателя — фирмы, занимающейся кибербезопасностью, — и подпольных организаций, которые пытаются его завербовать с целью обрушения самых могучих американских корпораций.

    Продолжительность: ~00: 41: 00 серия
    Качество видео: WEB-DLRip
    Перевод: Многоголосый закадровый, профессиональный -LostFilm
    Видео: XviD, 720x400 (16: 9), ~1500 kb/s
    Аудио Rus: MPEG Layer 3, 48, 0 kHz, 2 ch, 128 kb/s — многоголосый закадровый
    Аудио Eng: MPEG Layer 3, 48, 0 kHz, 2 ch, 128 kb/s — оригинал
    Код:

    Общее
    Полное имя : D:Мистер Робот (сезон любимого сериала 2) Mr. Robot (2016) WEBDLRip - LostFilmMr.Robot.S02E01.WEBDLRip.Rus.Eng.DV.LostFilm.avi
    Формат : AVI
    Формат/Информация : Audio Video Interleave
    Размер файла : 520 Мбайт
    Продолжительность : 41 м.
    Общий поток : 1769 Кбит/сек
    Название фильма : Mr.Robot.S02E01.WEBDLRip.Rus.Eng.DV.LostFilm/NNM-Club
    Программа кодирования : VirtualDubModRus 1.5.10.2 (build 2542/release)
    Библиотека кодирования : VirtualDubMod build 2542/release
    Видео
    Идентификатор : 0
    Формат : MPEG-4 Visual
    Профиль формата : Advanced Simple@L5
    Параметр BVOP формата : 2
    Параметр QPel формата : Нет
    Параметр GMC формата : Без точки перехода
    Параметр матрицы формата : Default (H.263)
    Идентификатор кодека : XVID
    Идентификатор кодека/Подсказка : XviD
    Продолжительность : 41 м.
    Битрейт : 1499 Кбит/сек
    Ширина : 720 пикселей
    Высота : 400 пикселей
    Соотношение сторон : 16:9
    Частота кадров : 23, 976 (24000/1001) кадра/сек
    Цветовое пространство : YUV
    Субдискретизация насыщенности : 4:2:0
    Битовая глубина : 8 бит
    Тип развёртки : Прогрессивная
    Метод сжатия : С потерями
    Бит/(Пиксели*Кадры) : 0.217
    Размер потока : 440 Мбайт (85%)
    Заголовок : Rip by DriverV/NNM-Club
    Библиотека кодирования : XviD 64
    Аудио #1
    Идентификатор : 1
    Формат : MPEG Audio
    Версия формата : Version 1
    Профиль формата : Layer 3
    Режим : Joint stereo
    Расширение режима : MS Stereo
    Идентификатор кодека : 55
    Идентификатор кодека/Подсказка : MP3
    Продолжительность : 41 м.
    Вид битрейта : Постоянный
    Битрейт : 128 Кбит/сек
    Каналы : 2 канала
    Частота : 48, 0 КГц
    Метод сжатия : С потерями
    Размер потока : 37, 6 Мбайт (7%)
    Выравнивание : Соединение по промежуткам
    Продолжительность промежутка : 42 мс. Самое интересное в это истории, что об этом Потап ничего не знал. (1, 00 видеокадр)
    Время предзагрузки промежутка : 504 мс.
    Аудио #2
    Идентификатор : 2
    Формат : MPEG Audio
    Версия формата : Version 1
    Профиль формата : Layer 3
    Режим : Joint stereo
    Расширение режима : MS Stereo
    Идентификатор кодека : 55
    Идентификатор кодека/Подсказка : MP3
    Продолжительность : 41 м.
    Вид битрейта : Постоянный
    Битрейт : 128 Кбит/сек
    Каналы : 2 канала
    Частота : 48, 0 КГц
    Метод сжатия : С потерями
    Размер потока : 37, 6 Мбайт (7%)
    Выравнивание : Соединение по промежуткам
    Продолжительность промежутка : 42 мс. (1, 00 видеокадр)
    Время предзагрузки промежутка : 504 мс.


    Скриншоты для ознакомления




    Онлайн видео Мистер Робот



    Мистер Робот/Mr. Robot (2016) WEB-DLRip (сезон 2, серии 1-2 из 12) LostFilm (обновляемая)
    загрузка...
    Рейтинг →
     (голосов: 1, оценка 5/5, голосовать можно 1 раз )

    Другие торренты по теме:

  • Мистер Робот / Mr. Robot (2015) WEB-DL [H.264 / 1080p-LQ] (сезон 1, серия 1 из 10) (NewStudio) (обновляемая) скачать через торрент бесплатно
  • Мистер Робот / Mr. Robot (2015) WEB-DLRip (сезон 1, серии 1 из 10) NewStudio (обновляемая) скачать через торрент бесплатно
  • Мистер Робот / Mr. Robot (2015) WEB-DL [H.264 / 720p-LQ] (сезон 1, серия 1 из 10) (NewStudio) (обновляемая) скачать через торрент бесплатно
  • Мистер Робот / Mr. Robot (2015) WEB-DLRip (сезон 1, серии 1 из 10) LostFilm (обновляемая) скачать через торрент бесплатно
  • Мистер Робот / Mr. Robot (2015) HDTVRip [H.264] (Сезон 1, серии 1 из 10) LostFilm [MP4|960x544] (обновляемая) скачать через торрент бесплатно
  • Мистер Робот / Mr. Robot (2015) WEB-DLRip [H.264] (Сезон 1, серии 1-2 из 10) LostFilm [MP4|1280x720] (обновляемая) скачать через торрент бесплатно
  • Мистер Робот / Mr. Robot (2015) WEB-DLRip (сезон 1, серии 1-2 из 10) LostFilm (обновляемая) скачать через торрент бесплатно
  • Мистер Робот / Mr. Robot (2015) WEB-DL [H.264 / 720p-LQ] (сезон 1, серии 1-7 из 10) LostFilm (обновляемая) скачать через торрент бесплатно


    • Комментарии (0):

      Информация

      Информация

        Посетители, находящиеся в группе Гости, не могут оставлять комментарии в данной новости.

        ↓ Меню




        ↓ Опрос

        Вы добавили сайт в закладки?
        Да
        Нет


        Top 10 за месяц (Фильмы)